Links Gratis

Zona de descargas de PELICULASZI.COM

Quitar Limites de descarga AQUI
Contraseña para descomprimir:
PELICULASZI.COM

FUBAR (2023) Full HD Temporada 1 WEB-DL 1080p Dual-Latino

Gracias por visitarnos


LINKS (Solucionar Limite de descarga)
Contraseña para descomprimir: PELICULASZI.COM
Descargar por Google Drive (Hacer Copia a su Unidad)
Disponible solo para Usuarios VIP - Se miembro VIP
https://drive.google.com/drive/folders/1DSYlOiPbOu_iLI1I5poOpqIxbzxVxHeq?usp=share_link


Descargar por Uptobox Sin límites: https://uptobox.peliculaszi.com
https://uii.io/QJtopl4NS6
https://uptobox.com/qqfufq7zsqer
https://uptobox.com/fs2i7vyb5msf
https://uptobox.com/ocnn2mhzhfkf
https://uptobox.com/301qiz28xa5d
https://uptobox.com/lfndrwegy4x2
https://uptobox.com/6e229jteo90t
https://uptobox.com/i623palo7ihs

Descargar por 1fichier
https://uii.io/R1Mi
https://1fichier.com/?zrij2n0zawdv130ktmzu
https://1fichier.com/?wndhv6m2aw6n19kucyvl
https://1fichier.com/?pypzfvfpqqkqhtg3xmm8
https://1fichier.com/?f7h6f00hc2xtjwx9coxe
https://1fichier.com/?fc68it1gge8rdoy7cr80
https://1fichier.com/?8uu47t92dei6paiihksq
https://1fichier.com/?oinm3tn9i2pxjtzu48fx

Descargar por DooDrive
https://doodrive.com/f/6ez9w6
https://doodrive.com/f/x3mpn6
https://doodrive.com/f/6ez926
https://doodrive.com/f/ogwxpq
https://doodrive.com/f/y6wywv
https://doodrive.com/f/zmz3z8
https://doodrive.com/f/mzwgv7
https://doodrive.com/f/pe7jxy

Descargar por Gofile.io
https://uii.io/iyf4v4dms8
https://gofile.io/d/xMWsEG
https://gofile.io/d/wXU4Dw
https://gofile.io/d/qXeGOc
https://gofile.io/d/pHpVUc
https://gofile.io/d/Ma8294
https://gofile.io/d/yhOlJZ
https://gofile.io/d/xgM9qd

Para llegar a los links de descarga hay que pasar por 1 Acortador
Si eres de los que les molesta o no dan para pasar por los acotadores puedes obtener los beneficios de usuario VIP, obtén más información dando clic AQUI
Format : Matroska
Format version : Version 4
File size : 2.38 GiB
Duration : 55 min 18 s
Overall bit rate mode : Variable
Overall bit rate : 6 163 kb/s
Movie name : PELICULASZI.COM
Encoded date : UTC 2023-05-25 12:28:50
Writing application : mkvmerge v71.1.0 ('Fortitude') 64-bit
Writing library : libebml v1.4.4 + libmatroska v1.7.1

Video
ID : 1
Format : AVC
Format/Info : Advanced Video Codec
Format profile : Main@L4
Format settings : CABAC / 3 Ref Frames
Format settings, CABAC : Yes
Format settings, Reference : 3 frames
Codec ID : V_MPEG4/ISO/AVC
Duration : 55 min 17 s
Bit rate mode : Variable
Bit rate : 4 753 kb/s
Nominal bit rate : 5 000 kb/s
Maximum bit rate : 7 500 kb/s
Width : 1 920 pixels
Height : 1 080 pixels
Display aspect ratio : 16:9
Frame rate mode : Constant
Frame rate : 23.976 (24000/1001) FPS
Color space : YUV
Chroma subsampling : 4:2:0
Bit depth : 8 bits
Scan type : Progressive
Bits/(Pixel*Frame) : 0.096
Stream size : 1.84 GiB (77%)
Title : PELICULASZI.COM
Writing library : x264 core 148 r2727 7d026e8
Encoding settings : cabac=1 / ref=3 / deblock=1:0:0 / analyse=0x1:0x111 / me=umh / subme=10 / psy=1 / psy_rd=1.00:0.00 / mixed_ref=1 / me_range=24 / chroma_me=1 / trellis=2 / 8x8dct=0 / cqm=0 / deadzone=21,11 / fast_pskip=1 / chroma_qp_offset=-2 / threads=8 / lookahead_threads=1 / sliced_threads=0 / nr=0 / decimate=1 / interlaced=0 / bluray_compat=0 / stitchable=1 / constrained_intra=0 / bframes=2 / b_pyramid=0 / b_adapt=2 / b_bias=0 / direct=3 / weightb=1 / open_gop=0 / weightp=2 / keyint=48 / keyint_min=25 / scenecut=0 / intra_refresh=0 / rc_lookahead=48 / rc=2pass / mbtree=1 / bitrate=5000 / ratetol=1.0 / qcomp=0.50 / qpmin=6 / qpmax=51 / qpstep=4 / cplxblur=20.0 / qblur=0.5 / vbv_maxrate=7500 / vbv_bufsize=10000 / nal_hrd=vbr / filler=0 / ip_ratio=1.40 / aq=1:1.00
Default : Yes
Forced : No

Audio #1
ID : 2
Format : E-AC-3
Format/Info : Enhanced AC-3
Commercial name : Dolby Digital Plus
Codec ID : A_EAC3
Duration : 55 min 18 s
Bit rate mode : Constant
Bit rate : 640 kb/s
Channel(s) : 6 channels
Channel layout : L R C LFE Ls Rs
Sampling rate : 48.0 kHz
Frame rate : 31.250 FPS (1536 SPF)
Compression mode : Lossy
Stream size : 253 MiB (10%)
Title : PELICULASZI.COM
Language : Spanish
Service kind : Complete Main
Default : Yes
Forced : Yes

Audio #2
ID : 3
Format : E-AC-3 JOC
Format/Info : Enhanced AC-3 with Joint Object Coding
Commercial name : Dolby Digital Plus with Dolby Atmos
Codec ID : A_EAC3
Duration : 55 min 17 s
Bit rate mode : Constant
Bit rate : 768 kb/s
Channel(s) : 6 channels
Channel layout : L R C LFE Ls Rs
Sampling rate : 48.0 kHz
Frame rate : 31.250 FPS (1536 SPF)
Compression mode : Lossy
Stream size : 304 MiB (12%)
Title : PELICULASZI.COM
Language : English
Service kind : Complete Main
Default : No
Forced : No
Complexity index : 16
Number of dynamic objects : 15
Bed channel count : 1 channel
Bed channel configuration : LFE

Text #1
ID : 4
Format : UTF-8
Codec ID : S_TEXT/UTF8
Codec ID/Info : UTF-8 Plain Text
Duration : 25 min 8 s
Bit rate : 2 b/s
Count of elements : 25
Stream size : 560 Bytes (0%)
Title : PELICULASZI.COM
Language : Spanish
Default : Yes
Forced : Yes

Text #2
ID : 5
Format : UTF-8
Codec ID : S_TEXT/UTF8
Codec ID/Info : UTF-8 Plain Text
Duration : 53 min 31 s
Bit rate : 76 b/s
Count of elements : 963
Stream size : 30.1 KiB (0%)
Title : Spanish
Language : Spanish
Default : No
Forced : No

Text #3
ID : 6
Format : UTF-8
Codec ID : S_TEXT/UTF8
Codec ID/Info : UTF-8 Plain Text
Duration : 53 min 43 s
Bit rate : 95 b/s
Count of elements : 1107
Stream size : 37.6 KiB (0%)
Title : English [CC]
Language : English
Default : No
Forced : No


Reportar Links Caídos Visitas: 170