Links Gratis

Zona de descargas de PELICULASZI.COM

Quitar Limites de descarga AQUI
Contraseña para descomprimir:
PELICULASZI.COM

Things I Do for Money (2020) HD WEB-DL 1080p Dual-Latino - PELICULASZI.COM

Gracias por visitarnos


LINKS (Solucionar Limite de descarga)
Contraseña para descomprimir: PELICULASZI.COM
Descargar por Google Drive (Hacer Copia a su Unidad)
Disponible solo para Usuarios VIP - Se miembro VIP
https://drive.google.com/file/d/1n_tTXGMULGWYB-C5N8UDxABjtWqqdXDq/view?usp=sharing


Descargar por Uptobox Sin límites: https://uptobox.peliculaszi.com
https://uii.io/SkBD

Descargar por 1fichier
https://uii.io/GZv1

Descargar por DooDrive
https://uii.io/mVnojYe1j

Descargar por Gofile.io
https://gofile.io/d/KpbuEW

Para llegar a los links de descarga hay que pasar por 1 Acortador
Si eres de los que les molesta o no dan para pasar por los acotadores puedes obtener los beneficios de usuario VIP, obtén más información dando clic AQUI
Format : Matroska
Format version : Version 4
File size : 4.67 GiB
Duration : 1 h 29 min
Overall bit rate : 7 482 kb/s
Movie name : PELICULASZI.COM
Encoded date : UTC 2023-05-25 09:58:04
Writing application : mkvmerge v71.1.0 ('Fortitude') 64-bit
Writing library : libebml v1.4.4 + libmatroska v1.7.1

Video
ID : 1
Format : AVC
Format/Info : Advanced Video Codec
Format profile : High@L4
Format settings : CABAC / 5 Ref Frames
Format settings, CABAC : Yes
Format settings, Reference : 5 frames
Codec ID : V_MPEG4/ISO/AVC
Duration : 1 h 29 min
Bit rate : 6 712 kb/s
Width : 1 920 pixels
Height : 800 pixels
Display aspect ratio : 2.40:1
Frame rate mode : Constant
Frame rate : 23.976 (24000/1001) FPS
Color space : YUV
Chroma subsampling : 4:2:0
Bit depth : 8 bits
Scan type : Progressive
Bits/(Pixel*Frame) : 0.182
Stream size : 4.19 GiB (90%)
Title : PELICULASZI.COM
Language : English
Default : Yes
Forced : No
Color range : Limited
Color primaries : BT.709
Transfer characteristics : BT.709
Matrix coefficients : BT.709

Audio #1
ID : 2
Format : AC-3
Format/Info : Audio Coding 3
Commercial name : Dolby Digital
Codec ID : A_AC3
Duration : 1 h 29 min
Bit rate mode : Constant
Bit rate : 384 kb/s
Channel(s) : 2 channels
Channel layout : L R
Sampling rate : 48.0 kHz
Frame rate : 31.250 FPS (1536 SPF)
Compression mode : Lossy
Stream size : 245 MiB (5%)
Title : PELICULASZI.COM
Language : Spanish
Service kind : Complete Main
Default : Yes
Forced : Yes

Audio #2
ID : 3
Format : AC-3
Format/Info : Audio Coding 3
Commercial name : Dolby Digital
Codec ID : A_AC3
Duration : 1 h 29 min
Bit rate mode : Constant
Bit rate : 384 kb/s
Channel(s) : 6 channels
Channel layout : L R C LFE Ls Rs
Sampling rate : 48.0 kHz
Frame rate : 31.250 FPS (1536 SPF)
Compression mode : Lossy
Stream size : 245 MiB (5%)
Title : PELICULASZI.COM
Language : English
Service kind : Complete Main
Default : No
Forced : No

Text
ID : 4
Format : UTF-8
Codec ID : S_TEXT/UTF8
Codec ID/Info : UTF-8 Plain Text
Duration : 1 h 23 min
Bit rate : 55 b/s
Count of elements : 1021
Stream size : 33.9 KiB (0%)
Title : PELICULASZI.COM
Language : Spanish
Default : No
Forced : No

Menu
00:00:00.000 : en:Chapter 01
00:20:14.213 : en:Chapter 02
00:41:22.313 : en:Chapter 03
01:06:01.832 : en:Chapter 04
01:26:16.629 : en:Chapter 05

Reportar Links Caídos Visitas: 103