Links Gratis

Zona de descargas de PELICULASZI.COM

Quitar Limites de descarga AQUI
ContraseƱa para descomprimir:
PELICULASZI.COM

Terminator La Rebelion de las Maquinas (2003) Full HD BRRip 1080p Dual-Latino - PELICULASZI.COM

Gracias por visitarnos


LINKS (Solucionar Limite de descarga)
Contraseña para descomprimir: PELICULASZI.COM
Descargar por Google Drive (Hacer Copia a su Unidad)
Disponible solo para Usuarios VIP - Se miembro VIP
https://drive.google.com/file/d/1Jy3x-Y34r8PRxdwFg_aslshilAeZ7lzd/view?usp=sharing


Descargar por Uptobox Sin límites: https://uptobox.peliculaszi.com
https://uii.io/VQ5KzmSi

Descargar por 1fichier
https://uii.io/Hw3R

Descargar por DooDrive
https://uii.io/wQwPWU

Descargar por Gofile.io
https://uii.io/cihrI

Para llegar a los links de descarga hay que pasar por 1 Acortador
Si eres de los que les molesta o no dan para pasar por los acotadores puedes obtener los beneficios de usuario VIP, obtén más información dando clic AQUI
Format : Matroska
Format version : Version 4
File size : 2.96 GiB
Duration : 1 h 49 min
Overall bit rate : 3 882 kb/s
Encoded date : UTC 2018-02-27 18:42:13
Writing application : mkvmerge v19.0.0 ('Brave Captain') 64-bit
Writing library : libebml v1.3.5 + libmatroska v1.4.8

Video
ID : 1
Format : AVC
Format/Info : Advanced Video Codec
Format profile : High@L4.1
Format settings : CABAC / 2 Ref Frames
Format settings, CABAC : Yes
Format settings, Reference : 2 frames
Codec ID : V_MPEG4/ISO/AVC
Duration : 1 h 49 min
Bit rate : 2 976 kb/s
Width : 1 920 pixels
Height : 1 080 pixels
Display aspect ratio : 16:9
Frame rate mode : Constant
Frame rate : 23.976 (24000/1001) FPS
Color space : YUV
Chroma subsampling : 4:2:0
Bit depth : 8 bits
Scan type : Progressive
Bits/(Pixel*Frame) : 0.060
Stream size : 2.27 GiB (77%)
Writing library : x264 core
Default : Yes
Forced : No
Color range : Limited
Color primaries : BT.709
Transfer characteristics : BT.709
Matrix coefficients : BT.709

Audio #1
ID : 2
Format : AC-3
Format/Info : Audio Coding 3
Commercial name : Dolby Digital
Codec ID : A_AC3
Duration : 1 h 49 min
Bit rate mode : Constant
Bit rate : 448 kb/s
Channel(s) : 6 channels
Channel layout : L R C LFE Ls Rs
Sampling rate : 48.0 kHz
Frame rate : 31.250 FPS (1536 SPF)
Compression mode : Lossy
Stream size : 349 MiB (12%)
Language : Spanish
Service kind : Complete Main
Default : Yes
Forced : No

Audio #2
ID : 3
Format : AC-3
Format/Info : Audio Coding 3
Commercial name : Dolby Digital
Codec ID : A_AC3
Duration : 1 h 49 min
Bit rate mode : Constant
Bit rate : 448 kb/s
Channel(s) : 6 channels
Channel layout : L R C LFE Ls Rs
Sampling rate : 48.0 kHz
Frame rate : 31.250 FPS (1536 SPF)
Compression mode : Lossy
Stream size : 349 MiB (12%)
Language : English
Service kind : Complete Main
Default : No
Forced : No

Text
ID : 4
Format : PGS
Muxing mode : zlib
Codec ID : S_HDMV/PGS
Codec ID/Info : Picture based subtitle format used on BDs/HD-DVDs
Duration : 1 h 48 min
Bit rate : 16.6 kb/s
Count of elements : 1532
Stream size : 12.9 MiB (0%)
Language : Spanish
Default : No
Forced : No

Menu
00:00:00.000 : en:(01)00:00:00:000
00:03:36.799 : en:(02)00:03:36:799
00:05:42.467 : en:(03)00:05:42:467
00:09:12.176 : en:(04)00:09:12:176
00:11:24.475 : en:(05)00:11:24:475
00:16:19.228 : en:(06)00:16:19:228
00:20:22.137 : en:(07)00:20:22:137
00:22:57.501 : en:(08)00:22:57:501
00:26:15.657 : en:(09)00:26:15:657
00:29:32.395 : en:(10)00:29:32:395
00:32:27.946 : en:(11)00:32:27:946
00:35:15.071 : en:(12)00:35:15:071
00:38:15.209 : en:(13)00:38:15:209
00:42:16.951 : en:(14)00:42:16:951
00:43:49.710 : en:(15)00:43:49:710
00:48:27.946 : en:(16)00:48:27:946
00:51:47.938 : en:(17)00:51:47:938
00:53:56.233 : en:(18)00:53:56:233
00:57:35.660 : en:(19)00:57:35:660
01:00:07.228 : en:(20)01:00:07:228
01:05:47.944 : en:(21)01:05:47:944
01:08:33.317 : en:(22)01:08:33:317
01:10:48.869 : en:(23)01:10:48:869
01:13:57.724 : en:(24)01:13:57:724
01:18:25.659 : en:(25)01:18:25:659
01:21:15.161 : en:(26)01:21:15:161
01:24:50.126 : en:(27)01:24:50:126
01:28:58.708 : en:(28)01:28:58:708
01:31:37.283 : en:(29)01:31:37:283
01:33:42.283 : en:(30)01:33:42:283
01:35:41.652 : en:(31)01:35:41:652
01:39:03.437 : en:(32)01:39:03:437
01:41:49.853 : en:(33)01:41:49:853
01:49:00.617 : en:(34)01:49:00:617


Reportar Error Visitas: 74