Links Gratis

Zona de descargas de PELICULASZI.COM

Quitar Limites de descarga AQUI
Contraseña para descomprimir:
PELICULASZI.COM

La Cueva (2012) Full HD BRRip 1080p Dual-Latino - PELICULASZI.COM

Gracias por visitarnos


LINKS (Solucionar Limite de descarga)
Contraseña para descomprimir: PELICULASZI.COM
Descargar por Google Drive (Hacer Copia a su Unidad)
Disponible solo para Usuarios VIP - Se miembro VIP
https://drive.google.com/file/d/1uAbAbImhDRbl1PIs5LXeGiL3SR696CKe/view?usp=sharing


Descargar por Uptobox Sin límites: https://uptobox.peliculaszi.com
https://uii.io/y4vRAOH

Descargar por 1fichier
https://uii.io/GDEbrKlTL

Descargar por DooDrive
https://uii.io/5ChY

Descargar por Gofile.io
https://uii.io/ah029s5Zu

Para llegar a los links de descarga hay que pasar por 1 Acortador
Si eres de los que les molesta o no dan para pasar por los acotadores puedes obtener los beneficios de usuario VIP, obtén más información dando clic AQUI
Format : Matroska
Format version : Version 4
File size : 2.54 GiB
Duration : 1 h 19 min
Overall bit rate : 4 554 kb/s
Encoded date : UTC 2020-07-07 22:12:15
Writing application : mkvmerge v43.0.0 ('The Quartermaster') 64-bit
Writing library : libebml v1.3.10 + libmatroska v1.5.2

Video
ID : 1
Format : AVC
Format/Info : Advanced Video Codec
Format profile : High@L4.1
Format settings : CABAC / 2 Ref Frames
Format settings, CABAC : Yes
Format settings, Reference : 2 frames
Codec ID : V_MPEG4/ISO/AVC
Duration : 1 h 19 min
Bit rate : 4 104 kb/s
Width : 1 920 pixels
Height : 1 080 pixels
Display aspect ratio : 16:9
Frame rate mode : Constant
Frame rate : 24.000 FPS
Color space : YUV
Chroma subsampling : 4:2:0
Bit depth : 8 bits
Scan type : Progressive
Bits/(Pixel*Frame) : 0.082
Stream size : 2.29 GiB (90%)
Writing library : x264 core
Default : Yes
Forced : No
Color range : Limited
Color primaries : BT.709
Transfer characteristics : BT.709
Matrix coefficients : BT.709

Audio
ID : 2
Format : AC-3
Format/Info : Audio Coding 3
Commercial name : Dolby Digital
Codec ID : A_AC3
Duration : 1 h 19 min
Bit rate mode : Constant
Bit rate : 448 kb/s
Channel(s) : 6 channels
Channel layout : L R C LFE Ls Rs
Sampling rate : 48.0 kHz
Frame rate : 31.250 FPS (1536 SPF)
Compression mode : Lossy
Stream size : 256 MiB (10%)
Language : Spanish
Service kind : Complete Main
Default : Yes
Forced : No


Reportar Links Caídos Visitas: 107