Links Gratis

Zona de descargas de PELICULASZI.COM

Quitar Limites de descarga AQUI
Contraseña para descomprimir:
PELICULASZI.COM

El Origen Del Planeta De Los Simios (2011) Full HD BRRip 1080p Dual-Latino - PELICULASZI.COM

Gracias por visitarnos


LINKS (Solucionar Limite de descarga)
Contraseña para descomprimir: PELICULASZI.COM
Descargar por Google Drive (Hacer Copia a su Unidad)
Disponible solo para Usuarios VIP - Se miembro VIP
https://terabox.com/s/1Wj8tOKgIb63Lgq_YoKniSA

Descargar por Uptobox Sin límites: https://uptobox.peliculaszi.com
https://uii.io/lLOk

Descargar por 1fichier
https://uii.io/CMki

Descargar por DooDrive
https://uii.io/6OEiNb

Descargar por Gofile.io
https://uii.io/Qtzx96t8

Para llegar a los links de descarga hay que pasar por 1 Acortador
Si eres de los que les molesta o no dan para pasar por los acotadores puedes obtener los beneficios de usuario VIP, obtén más información dando clic AQUI
Format : Matroska
Format version : Version 4
File size : 2.83 GiB
Duration : 1 h 44 min
Overall bit rate : 3 866 kb/s
Movie name : PELICULASZI.COM
Encoded date : UTC 2018-07-01 16:30:33
Writing application : mkvmerge v22.0.0 ('At The End Of The World') 64-bit
Writing library : libebml v1.3.5 + libmatroska v1.4.8

Video
ID : 1
Format : AVC
Format/Info : Advanced Video Codec
Format profile : High@L4.1
Format settings : CABAC / 2 Ref Frames
Format settings, CABAC : Yes
Format settings, Reference : 2 frames
Codec ID : V_MPEG4/ISO/AVC
Duration : 1 h 44 min
Bit rate : 2 968 kb/s
Width : 1 920 pixels
Height : 1 080 pixels
Display aspect ratio : 16:9
Frame rate mode : Constant
Frame rate : 23.976 (24000/1001) FPS
Color space : YUV
Chroma subsampling : 4:2:0
Bit depth : 8 bits
Scan type : Progressive
Bits/(Pixel*Frame) : 0.060
Stream size : 2.18 GiB (77%)
Title : PELICULASZI.COM
Writing library : x264 core
Default : Yes
Forced : No
Color range : Limited
Color primaries : BT.709
Transfer characteristics : BT.709
Matrix coefficients : BT.709

Audio #1
ID : 2
Format : AC-3
Format/Info : Audio Coding 3
Commercial name : Dolby Digital
Codec ID : A_AC3
Duration : 1 h 44 min
Bit rate mode : Constant
Bit rate : 448 kb/s
Channel(s) : 6 channels
Channel layout : L R C LFE Ls Rs
Sampling rate : 48.0 kHz
Frame rate : 31.250 FPS (1536 SPF)
Compression mode : Lossy
Stream size : 336 MiB (12%)
Title : PELICULASZI.COM
Language : Spanish
Service kind : Complete Main
Default : Yes
Forced : No

Audio #2
ID : 3
Format : AC-3
Format/Info : Audio Coding 3
Commercial name : Dolby Digital
Codec ID : A_AC3
Duration : 1 h 44 min
Bit rate mode : Constant
Bit rate : 448 kb/s
Channel(s) : 6 channels
Channel layout : L R C LFE Ls Rs
Sampling rate : 48.0 kHz
Frame rate : 31.250 FPS (1536 SPF)
Compression mode : Lossy
Stream size : 336 MiB (12%)
Title : PELICULASZI.COM
Language : English
Service kind : Complete Main
Default : No
Forced : No

Text #1
ID : 4
Format : UTF-8
Codec ID : S_TEXT/UTF8
Codec ID/Info : UTF-8 Plain Text
Duration : 1 h 37 min
Bit rate : 34 b/s
Count of elements : 813
Stream size : 24.7 KiB (0%)
Title : PELICULASZI.COM
Language : Spanish
Default : No
Forced : No

Text #2
ID : 5
Format : UTF-8
Codec ID : S_TEXT/UTF8
Codec ID/Info : UTF-8 Plain Text
Duration : 1 h 36 min
Bit rate : 38 b/s
Count of elements : 992
Stream size : 26.9 KiB (0%)
Language : English
Default : No
Forced : No

Menu
00:00:00.000 : en:(01)00:00:00:000
00:05:24.407 : en:(02)00:05:24:407
00:09:17.974 : en:(03)00:09:17:974
00:14:19.066 : en:(04)00:14:19:066
00:18:07.544 : en:(05)00:18:07:544
00:20:03.785 : en:(06)00:20:03:785
00:22:38.148 : en:(07)00:22:38:148
00:25:17.015 : en:(08)00:25:17:015
00:29:42.655 : en:(09)00:29:42:655
00:33:38.266 : en:(10)00:33:38:266
00:38:29.098 : en:(11)00:38:29:098
00:41:12.595 : en:(12)00:41:12:595
00:45:19.007 : en:(13)00:45:19:007
00:48:50.177 : en:(14)00:48:50:177
00:52:56.631 : en:(15)00:52:56:631
00:57:30.280 : en:(16)00:57:30:280
00:59:26.729 : en:(17)00:59:26:729
01:01:30.144 : en:(18)01:01:30:144
01:05:03.608 : en:(19)01:05:03:608
01:06:20.267 : en:(20)01:06:20:267
01:09:34.962 : en:(21)01:09:34:962
01:11:15.688 : en:(22)01:11:15:688
01:15:44.122 : en:(23)01:15:44:122
01:18:29.204 : en:(24)01:18:29:204
01:23:09.275 : en:(25)01:23:09:275
01:27:50.390 : en:(26)01:27:50:390
01:33:00.366 : en:(27)01:33:00:366
01:37:08.948 : en:(28)01:37:08:948
01:44:56.206 : en:(29)01:44:56:206




Reportar Links Caídos Visitas: 116