Links Gratis

Zona de descargas de PELICULASZI.COM

Quitar Limites de descarga AQUI
ContraseƱa para descomprimir:
PELICULASZI.COM

Mundo Canino (2021) Full HD WEB-DL 1080p Dual-Latino - PELICULASZI.COM

Gracias por visitarnos


LINKS (Solucionar Limite de descarga)
Contraseña para descomprimir: PELICULASZI.COM
Descargar por Google Drive (Hacer Copia a su Unidad)
Disponible solo para Usuarios VIP - Se miembro VIP


Descargar por Uptobox Sin límites: https://uptobox.peliculaszi.com
https://uii.io/VRnly5

Descargar por 1fichier
https://uii.io/PrSQzjBPW

Descargar por Gofile.io
https://uii.io/j1GpV6qtU


Para llegar a los links de descarga hay que pasar por 1 Acortador
Si eres de los que les molesta o no dan para pasar por los acotadores puedes obtener los beneficios de usuario VIP, obtén más información dando clic AQUI
Format : Matroska
Format version : Version 4
File size : 5.69 GiB
Duration : 1 h 57 min
Overall bit rate : 6 960 kb/s
Movie name : PELICULASZI.COM
Encoded date : UTC 2023-09-14 12:42:52
Writing application : mkvmerge v63.0.0 ('Everything') 64-bit
Writing library : libebml v1.4.2 + libmatroska v1.6.4

Video
ID : 1
Format : AVC
Format/Info : Advanced Video Codec
Format profile : High@L4
Format settings : CABAC / 5 Ref Frames
Format settings, CABAC : Yes
Format settings, Reference : 5 frames
Codec ID : V_MPEG4/ISO/AVC
Duration : 1 h 57 min
Bit rate : 6 630 kb/s
Width : 1 918 pixels
Height : 802 pixels
Display aspect ratio : 2.40:1
Frame rate mode : Constant
Frame rate : 24.000 FPS
Color space : YUV
Chroma subsampling : 4:2:0
Bit depth : 8 bits
Scan type : Progressive
Bits/(Pixel*Frame) : 0.180
Stream size : 5.42 GiB (95%)
Title : PELICULASZI.COM
Language : Spanish
Default : Yes
Forced : No
Color range : Limited
Color primaries : BT.709
Transfer characteristics : BT.709
Matrix coefficients : BT.709

Audio #1
ID : 2
Format : AAC LC
Format/Info : Advanced Audio Codec Low Complexity
Codec ID : A_AAC-2
Duration : 1 h 57 min
Bit rate : 163 kb/s
Channel(s) : 2 channels
Channel layout : L R
Sampling rate : 48.0 kHz
Frame rate : 46.875 FPS (1024 SPF)
Compression mode : Lossy
Stream size : 136 MiB (2%)
Title : PELICULASZI.COM
Language : Spanish
Default : No
Forced : No

Audio #2
ID : 3
Format : AAC LC
Format/Info : Advanced Audio Codec Low Complexity
Codec ID : A_AAC-2
Duration : 1 h 57 min
Bit rate : 163 kb/s
Channel(s) : 2 channels
Channel layout : L R
Sampling rate : 48.0 kHz
Frame rate : 46.875 FPS (1024 SPF)
Compression mode : Lossy
Stream size : 137 MiB (2%)
Title : PELICULASZI.COM
Language : Italian
Default : No
Forced : No

Text
ID : 4
Format : UTF-8
Codec ID : S_TEXT/UTF8
Codec ID/Info : UTF-8 Plain Text
Duration : 1 h 49 min
Bit rate : 36 b/s
Count of elements : 978
Stream size : 28.9 KiB (0%)
Title : PELICULASZI.COM
Language : Spanish
Default : No
Forced : No



Reportar Error Visitas: 43