Links Gratis

Zona de descargas de PELICULASZI.COM

Quitar Limites de descarga AQUI
ContraseƱa para descomprimir:
PELICULASZI.COM

My Nightmare Landlord (2020) Full HD WEB-DL 1080p Dual-Latino G

Gracias por visitarnos

Este contenido esta disponible para ver online en nuestro servidor privado con el centro multimedia emby. La opción de Streaming es solo para los miembros vip. Contamos con servidores de alta velocidad no tendrás interrupciones sin publicidad y un gran catálogo de películas y series .Hazte miembro VIP, seria como tener NF, AMZN, HBO, DYNP, entre otros servicios de Streaming en un solo lugar y al mejor precio, Obtén más información: Aquí

LINKS (Solucionar Limite de descarga)
Descargar por Google Drive (Agregar A su unidad y hacer Copia)
http://uii.io/FAZz3

Descargar por Uptobox
Link Directo: Solo Para Usuarios VIP
Link Normal:http://uii.io/Q6Ib1

Descargar por MEGA
http://uii.io/QiCTbZ

Para llegar a los links de descarga hay que pasar por 2 Acortadores
Si eres de los que les molesta o no dan para pasar por los acotadores puedes obtener los beneficios de usuario VIP, obtén más la información dando clic AQUI


Format : Matroska
Format version : Version 4
File size : 1.58 GiB
Duration : 1 h 27 min
Overall bit rate mode : Variable
Overall bit rate : 2 586 kb/s
Movie name : PELICULASZI.COM
Encoded date : UTC 2020-05-18 14:02:43
Writing application : mkvmerge v43.0.0 ('The Quartermaster') 64-bit
Writing library : libebml v1.3.10 + libmatroska v1.5.2

Video
ID : 1
Format : AVC
Format/Info : Advanced Video Codec
Format profile : Main@L4
Format settings : CABAC / 1 Ref Frames
Format settings, CABAC : Yes
Format settings, Reference : 1 frame
Codec ID : V_MPEG4/ISO/AVC
Duration : 1 h 27 min
Bit rate mode : Variable
Bit rate : 2 071 kb/s
Maximum bit rate : 8 000 kb/s
Width : 1 920 pixels
Height : 1 080 pixels
Display aspect ratio : 16:9
Frame rate mode : Constant
Frame rate : 30.000 FPS
Color space : YUV
Chroma subsampling : 4:2:0
Bit depth : 8 bits
Scan type : Progressive
Bits/(Pixel*Frame) : 0.033
Stream size : 1.27 GiB (80%)
Title : PELICULASZI.COM
Default : Yes
Forced : No

Audio #1
ID : 2
Format : AC-3
Format/Info : Audio Coding 3
Commercial name : Dolby Digital
Codec ID : A_AC3
Duration : 1 h 27 min
Bit rate mode : Constant
Bit rate : 256 kb/s
Channel(s) : 2 channels
Channel layout : L R
Sampling rate : 44.1 kHz
Frame rate : 28.711 FPS (1536 SPF)
Compression mode : Lossy
Stream size : 160 MiB (10%)
Title : Latino - PELICULASZI.COM
Language : Spanish
Service kind : Complete Main
Default : Yes
Forced : No

Audio #2
ID : 3
Format : AC-3
Format/Info : Audio Coding 3
Commercial name : Dolby Digital
Codec ID : A_AC3
Duration : 1 h 27 min
Bit rate mode : Constant
Bit rate : 256 kb/s
Channel(s) : 2 channels
Channel layout : L R
Sampling rate : 44.1 kHz
Frame rate : 28.711 FPS (1536 SPF)
Compression mode : Lossy
Stream size : 160 MiB (10%)
Title : Ingles - PELICULASZI.COM
Language : English
Service kind : Complete Main
Default : No
Forced : No


Reportar Error Visitas: 294