Links Gratis

Zona de descargas de PELICULASZI.COM

Quitar Limites de descarga AQUI
ContraseƱa para descomprimir:
PELICULASZI.COM

Avengers Infinity War (2018) Full HD REMUX 1080p Dual-Latino GRATIS


Gracias por visitarnos

LINKS (Solucionar Limite de descarga)
Contraseña para descomprimir: PELICULASZI.COM
Descargar por Google Drive (.rar) (Hacer Copia a su Unidad)
https://ouo.io/Ujq9nS

Descargar por Uptobox
https://ouo.io/qebzEt

Descargar por 1fichier (.rar)
https://ouo.io/lwcyHn

Descargar por MEGA (.rar)
https://ouo.io/OGgSjF

Para llegar a los links de descarga hay que pasar por 2 Acortadores
Si eres de los que les molesta o no dan para pasar por los acotadores puedes obtener los beneficios de usuario VIP, obtén más información dando clic AQUI


Formato : Matroska
Formato de la versión : Version 4
Tamaño de archivo : 15,9 GiB
Duración : 2 h 29 min
Modo de tasa de bits : Variable
Tasa de bits general : 15,2 Mb/s
Película : Avengers Infinity War (2018) - PELICULASZI.COM
Fecha de codificación : UTC 2021-05-28 05:24:50
Aplicación de codifición : mkvmerge v57.0.0 ('Till The End') 64-bit
Librería de codificación : libebml v1.4.2 + libmatroska v1.6.4

Vídeo
ID : 1
Formato : AVC
Formato/Info : Advanced Video Codec
Formato del perfil : High@L4.1
Ajustes del formato : CABAC / 2 Ref Frames
Ajustes del formato, CABAC : Sí
Ajustes del formato, RefFrames : 2 fotogramas
ID códec : V_MPEG4/ISO/AVC
Duración : 2 h 29 min
Tipo de tasa de bits : Variable
Tasa de bits : 9 723 kb/s
Tasa de bits máxima : 35,0 Mb/s
Ancho : 1 920 píxeles
Alto : 1 080 píxeles
Relación de aspecto : 16:9
Modo velocidad fotogramas : Constante
Velocidad de fotogramas : 23,976 (24000/1001) FPS
Espacio de color : YUV
Submuestreo croma : 4:2:0
Profundidad bits : 8 bits
Tipo barrido : Progresivo
Bits/(píxel*fotograma) : 0.196
Tamaño de pista : 10,1 GiB (63%)
Título : PELICULASZI.COM
Librería de codificación : x264 core 142
Opciones de codificación : cabac=1 / ref=1 / deblock=1:-1:-1 / analyse=0x3:0x112 / me=dia / subme=1 / psy=0 / mixed_ref=0 / me_range=12 / chroma_me=1 / trellis=0 / 8x8dct=1 / cqm=0 / deadzone=21,11 / fast_pskip=0 / chroma_qp_offset=0 / threads=8 / lookahead_threads=4 / sliced_threads=0 / nr=0 / decimate=1 / interlaced=0 / bluray_compat=0 / constrained_intra=0 / bframes=4 / b_pyramid=0 / b_adapt=2 / b_bias=0 / direct=3 / weightb=1 / open_gop=0 / weightp=0 / keyint=1000 / keyint_min=2 / scenecut=40 / intra_refresh=0 / rc_lookahead=2 / rc=abr / mbtree=0 / bitrate=9723 / ratetol=1.0 / qcomp=0.50 / qpmin=0 / qpmax=69 / qpstep=4 / vbv_maxrate=35000 / vbv_bufsize=30000 / nal_hrd=vbr / filler=0 / ip_ratio=1.10 / pb_ratio=1.10 / aq=1:1.00
Default : Sí
Forced : No
Rango de color : Limited
Colores primarios : BT.709
Características transferencia : BT.709
Coeficientes matriz : BT.709

Audio #1
ID : 2
Formato : DTS XLL
Formato/Info : Digital Theater Systems
Nombre comercial : DTS-HD Master Audio
ID códec : A_DTS
Duración : 2 h 29 min
Tipo de tasa de bits : Variable
Tasa de bits : 4 901 kb/s
Canal(es) : 8 canales
Channel layout : C L R LFE Lb Rb Lss Rss
Velocidad de muestreo : 48,0 kHz
Velocidad de fotogramas : 93,750 FPS (512 SPF)
Profundidad bits : 24 bits
Modo de compresión : Sin pérdida
Tamaño de pista : 5,11 GiB (32%)
Título : PELICULASZI.COM
Idioma : Inglés
Default : No
Forced : No

Audio #2
ID : 3
Formato : AC-3
Formato/Info : Audio Coding 3
Nombre comercial : Dolby Digital
ID códec : A_AC3
Duración : 2 h 29 min
Tipo de tasa de bits : Constante
Tasa de bits : 640 kb/s
Canal(es) : 6 canales
Channel layout : L R C LFE Ls Rs
Velocidad de muestreo : 48,0 kHz
Velocidad de fotogramas : 31,250 FPS (1536 SPF)
Modo de compresión : Con pérdida
Tamaño de pista : 684 MiB (4%)
Título : PELICULASZI.COM
Idioma : Español
Service kind : Complete Main
Default : Sí
Forced : No

Texto #1
ID : 4
Formato : PGS
Modo multiplexor : zlib
ID códec : S_HDMV/PGS
ID códec/Info : Picture based subtitle format used on BDs/HD-DVDs
Duración : 2 h 28 min
Tasa de bits : 32,9 kb/s
Count of elements : 4134
Tamaño de pista : 34,9 MiB (0%)
Título : PELICULASZI.COM
Idioma : Inglés
Default : No
Forced : No

Texto #2
ID : 5
Formato : PGS
Modo multiplexor : zlib
ID códec : S_HDMV/PGS
ID códec/Info : Picture based subtitle format used on BDs/HD-DVDs
Duración : 2 h 28 min
Tasa de bits : 24,3 kb/s
Count of elements : 3144
Tamaño de pista : 25,9 MiB (0%)
Título : PELICULASZI.COM
Idioma : Español
Default : No
Forced : No

Texto #3
ID : 6
Formato : PGS
Modo multiplexor : zlib
ID códec : S_HDMV/PGS
ID códec/Info : Picture based subtitle format used on BDs/HD-DVDs
Duración : 1 s 126 ms
Tasa de bits : 86,4 kb/s
Count of elements : 2
Tamaño de pista : 11,9 KiB (0%)
Título : PELICULASZI.COM
Idioma : Inglés
Default : No
Forced : Sí

Texto #4
ID : 7
Formato : PGS
Modo multiplexor : zlib
ID códec : S_HDMV/PGS
ID códec/Info : Picture based subtitle format used on BDs/HD-DVDs
Duración : 2 h 1 min
Tasa de bits : 137 b/s
Count of elements : 16
Tamaño de pista : 123 KiB (0%)
Título : Forzados
Idioma : Español
Default : Sí
Forced : Sí
Gracias por visitarnos


LINKS (Solucionar Limite de descarga)
Contraseña para descomprimir: PELICULASZI.COM
Descargar por Google Drive (Hacer Copia a su Unidad)
Disponible solo para Usuarios VIP - Se miembro VIP
https://drive.google.com/file/d/1ErqkvnL7HO82AkG8bIe22DgK-b6uY-tf/view?usp=sharing


Descargar por Uptobox Sin límites: https://uptobox.peliculaszi.com
https://uii.io/bstlNVjyh

Descargar por 1fichier
https://uii.io/jScvkZ9O

Descargar por DooDrive
https://uii.io/4Asx7FoHM

Descargar por MegaUp
https://uii.io/hhEx

Para llegar a los links de descarga hay que pasar por 1 Acortador
Si eres de los que les molesta o no dan para pasar por los acotadores puedes obtener los beneficios de usuario VIP, obtén más información dando clic AQUI
Format : Matroska
Format version : Version 4
File size : 3.53 GiB
Duration : 2 h 29 min
Overall bit rate : 3 384 kb/s
Movie name : Avengers Infinity War (2018) - PELICULASZI.COM
Encoded date : UTC 2023-01-11 16:43:25
Writing application : mkvmerge v43.0.0 ('The Quartermaster') 64-bit
Writing library : libebml v1.3.10 + libmatroska v1.5.2

Video
ID : 1
Format : AVC
Format/Info : Advanced Video Codec
Format profile : High@L4.1
Format settings : CABAC / 4 Ref Frames
Format settings, CABAC : Yes
Format settings, Reference : 4 frames
Codec ID : V_MPEG4/ISO/AVC
Duration : 2 h 29 min
Bit rate : 2 500 kb/s
Width : 1 920 pixels
Height : 808 pixels
Display aspect ratio : 2.40:1
Frame rate mode : Constant
Frame rate : 23.976 (23976/1000) FPS
Color space : YUV
Chroma subsampling : 4:2:0
Bit depth : 8 bits
Scan type : Progressive
Bits/(Pixel*Frame) : 0.067
Stream size : 2.61 GiB (74%)
Writing library : x264 core 152 r2851M ba24899
Encoding settings : cabac=1 / ref=4 / deblock=1:-1:-1 / analyse=0x3:0x113 / me=umh / subme=9 / psy=1 / psy_rd=1.00:0.15 / mixed_ref=1 / me_range=24 / chroma_me=1 / trellis=2 / 8x8dct=1 / cqm=0 / deadzone=21,11 / fast_pskip=1 / chroma_qp_offset=-3 / threads=32 / lookahead_threads=4 / sliced_threads=0 / nr=0 / decimate=1 / interlaced=0 / bluray_compat=0 / constrained_intra=0 / bframes=3 / b_pyramid=2 / b_adapt=2 / b_bias=0 / direct=3 / weightb=1 / open_gop=0 / weightp=2 / keyint=250 / keyint_min=25 / scenecut=40 / intra_refresh=0 / rc_lookahead=50 / rc=2pass / mbtree=1 / bitrate=2500 / ratetol=1.0 / qcomp=0.60 / qpmin=0 / qpmax=69 / qpstep=4 / cplxblur=20.0 / qblur=0.5 / vbv_maxrate=31250 / vbv_bufsize=31250 / nal_hrd=none / filler=0 / ip_ratio=1.40 / aq=3:1.00
Default : Yes
Forced : No

Audio #1
ID : 2
Format : AC-3
Format/Info : Audio Coding 3
Commercial name : Dolby Digital
Codec ID : A_AC3
Duration : 2 h 29 min
Bit rate mode : Constant
Bit rate : 640 kb/s
Channel(s) : 6 channels
Channel layout : L R C LFE Ls Rs
Sampling rate : 48.0 kHz
Frame rate : 31.250 FPS (1536 SPF)
Compression mode : Lossy
Delay relative to video : -43 ms
Stream size : 684 MiB (19%)
Title : PELICULASZI.COM
Language : Spanish
Service kind : Complete Main
Default : Yes
Forced : Yes

Audio #2
ID : 3
Format : AAC LC
Format/Info : Advanced Audio Codec Low Complexity
Codec ID : A_AAC-2
Duration : 2 h 29 min
Bit rate : 224 kb/s
Channel(s) : 6 channels
Channel layout : C L R Ls Rs LFE
Sampling rate : 48.0 kHz
Frame rate : 46.875 FPS (1024 SPF)
Compression mode : Lossy
Delay relative to video : -43 ms
Stream size : 239 MiB (7%)
Language : English
Default : No
Forced : No

Text #1
ID : 4
Format : PGS
Muxing mode : zlib
Codec ID : S_HDMV/PGS
Codec ID/Info : Picture based subtitle format used on BDs/HD-DVDs
Duration : 2 h 28 min
Bit rate : 32.9 kb/s
Count of elements : 4134
Stream size : 34.9 MiB (1%)
Title : PELICULASZI.COM
Language : English
Default : No
Forced : No

Text #2
ID : 5
Format : PGS
Muxing mode : zlib
Codec ID : S_HDMV/PGS
Codec ID/Info : Picture based subtitle format used on BDs/HD-DVDs
Duration : 2 h 28 min
Bit rate : 24.3 kb/s
Count of elements : 3144
Stream size : 25.9 MiB (1%)
Title : PELICULASZI.COM
Language : Spanish
Default : No
Forced : No

Text #3
ID : 6
Format : PGS
Muxing mode : zlib
Codec ID : S_HDMV/PGS
Codec ID/Info : Picture based subtitle format used on BDs/HD-DVDs
Duration : 1 s 126 ms
Bit rate : 86.4 kb/s
Count of elements : 2
Stream size : 11.9 KiB (0%)
Title : PELICULASZI.COM
Language : English
Default : No
Forced : Yes

Text #4
ID : 7
Format : PGS
Muxing mode : zlib
Codec ID : S_HDMV/PGS
Codec ID/Info : Picture based subtitle format used on BDs/HD-DVDs
Duration : 2 h 1 min
Bit rate : 137 b/s
Count of elements : 16
Stream size : 123 KiB (0%)
Title : Forzados
Language : Spanish
Default : Yes
Forced : Yes

Reportar Error Visitas: 682