Links Gratis

Zona de descargas de PELICULASZI.COM

Quitar Limites de descarga AQUI
ContraseƱa para descomprimir:
PELICULASZI.COM

She Hulk (2022) Full HD Temporada 1 WEB-DL 1080p Dual-Latino

Gracias por visitarnos


LINKS (Solucionar Limite de descarga)
Contraseña para descomprimir: PELICULASZI.COM
Descargar por Google Drive (Hacer Copia a su Unidad)
Disponible solo para Usuarios VIP - Se miembro VIP
https://drive.google.com/drive/folders/1MhG0CzjvDCQw_o9iyGhtFQ6scE71EVq2?usp=sharing


Descargar por Uptobox
https://ouo.io/dsP1Zcn
https://uii.io/u6z3zy74
https://uii.io/EN8Sp
https://ouo.io/pjFJIh
https://exe.io/zYzBY
https://uii.io/HyHv
https://uii.io/tx34NAkR1i
https://uptobox.com/fpnjmvmpiej0
https://ouo.io/ds1b13

Descargar por 1fichier
https://ouo.io/6KAQI5
https://uii.io/TQtkAj
https://uii.io/hDTszv
https://ouo.io/ZH542X
https://exe.io/RPnK5
https://uii.io/oDxi
https://uii.io/tbU806sb
https://1fichier.com/?b91zwi6qa5q7rf0i3cru
https://ouo.io/6W3C1M

Para llegar a los links de descarga hay que pasar por 1 Acortador
Si eres de los que les molesta o no dan para pasar por los acotadores puedes obtener los beneficios de usuario VIP, obtén más información dando clic AQUI
Format : Matroska
Format version : Version 4
File size : 1.79 GiB
Duration : 35 min 22 s
Overall bit rate mode : Variable
Overall bit rate : 7 245 kb/s
Movie name : PELICULASZI.COM
Encoded date : UTC 2022-08-18 12:58:46
Writing application : mkvmerge v69.0.0 ('Day And Age') 64-bit
Writing library : libebml v1.4.2 + libmatroska v1.6.4

Video
ID : 1
Format : AVC
Format/Info : Advanced Video Codec
Format profile : High@L4
Format settings : CABAC / 4 Ref Frames
Format settings, CABAC : Yes
Format settings, Reference : 4 frames
Codec ID : V_MPEG4/ISO/AVC
Duration : 35 min 22 s
Bit rate mode : Variable
Bit rate : 6 219 kb/s
Maximum bit rate : 12.7 Mb/s
Width : 1 920 pixels
Height : 1 080 pixels
Display aspect ratio : 16:9
Frame rate mode : Constant
Frame rate : 24.000 FPS
Color space : YUV
Chroma subsampling : 4:2:0
Bit depth : 8 bits
Scan type : Progressive
Bits/(Pixel*Frame) : 0.125
Stream size : 1.54 GiB (86%)
Title : PELICULASZI.COM
Language : English
Default : Yes
Forced : No
Color range : Limited
Color primaries : BT.709
Transfer characteristics : BT.709
Matrix coefficients : BT.709

Audio #1
ID : 2
Format : E-AC-3
Format/Info : Enhanced AC-3
Commercial name : Dolby Digital Plus
Codec ID : A_EAC3
Duration : 35 min 22 s
Bit rate mode : Constant
Bit rate : 256 kb/s
Channel(s) : 6 channels
Channel layout : L R C LFE Ls Rs
Sampling rate : 48.0 kHz
Frame rate : 31.250 FPS (1536 SPF)
Compression mode : Lossy
Stream size : 64.8 MiB (4%)
Title : PELICULASZI.COM
Language : Spanish
Service kind : Complete Main
Default : Yes
Forced : No

Audio #2
ID : 3
Format : E-AC-3 JOC
Format/Info : Enhanced AC-3 with Joint Object Coding
Commercial name : Dolby Digital Plus with Dolby Atmos
Codec ID : A_EAC3
Duration : 35 min 22 s
Bit rate mode : Constant
Bit rate : 768 kb/s
Channel(s) : 6 channels
Channel layout : L R C LFE Ls Rs
Sampling rate : 48.0 kHz
Frame rate : 31.250 FPS (1536 SPF)
Compression mode : Lossy
Stream size : 194 MiB (11%)
Title : PELICULASZI.COM
Language : English
Service kind : Complete Main
Default : Yes
Forced : No
Complexity index : 16
Number of dynamic objects : 15
Bed channel count : 1 channel
Bed channel configuration : LFE

Text #1
ID : 4
Format : UTF-8
Codec ID : S_TEXT/UTF8
Codec ID/Info : UTF-8 Plain Text
Duration : 32 min 4 s
Bit rate : 89 b/s
Count of elements : 660
Stream size : 21.1 KiB (0%)
Title : PELICULASZI.COM
Language : English
Default : No
Forced : No

Text #2
ID : 5
Format : UTF-8
Codec ID : S_TEXT/UTF8
Codec ID/Info : UTF-8 Plain Text
Duration : 34 min 34 s
Bit rate : 68 b/s
Count of elements : 507
Stream size : 17.3 KiB (0%)
Title : Español (Latinoamérica)
Language : Spanish
Default : No
Forced : No

Text #3
ID : 6
Format : UTF-8
Codec ID : S_TEXT/UTF8
Codec ID/Info : UTF-8 Plain Text
Duration : 29 min 23 s
Bit rate : 0 b/s
Count of elements : 5
Stream size : 117 Bytes (0%)
Title : Forzados
Language : Spanish
Default : No
Forced : Yes



Reportar Error Visitas: 1174