Links Gratis

Zona de descargas de PELICULASZI.COM

Quitar Limites de descarga AQUI
ContraseƱa para descomprimir:
PELICULASZI.COM

Thor- Amor y Trueno (2022) Ultra HD REMUX 4K Dual-Latino - PELICULASZI.COM

Gracias por visitarnos


LINKS (Solucionar Limite de descarga)
Contraseña para descomprimir: PELICULASZI.COM
Descargar por Google Drive (Hacer Copia a su Unidad)
Disponible solo para Usuarios VIP - Se miembro VIP
https://drive.google.com/file/d/1uXKEOCpDVAuxLWUNbGoXXBaERZYrCgzD/view?usp=sharing


Descargar por Uptobox
https://uii.io/eulkJvE7

Descargar por 1fichier
https://ouo.io/omukBwS

Para llegar a los links de descarga hay que pasar por 1 Acortador
Si eres de los que les molesta o no dan para pasar por los acotadores puedes obtener los beneficios de usuario VIP, obtén más información dando clic AQUI
Format : Matroska
Format version : Version 4
File size : 49.0 GiB
Duration : 1 h 58 min
Overall bit rate mode : Variable
Overall bit rate : 59.1 Mb/s
Movie name : Más contenido en: PELICULASZI.COM
Encoded date : UTC 2022-09-15 17:04:41
Writing application : mkvmerge v69.0.0 ('Day And Age') 64-bit
Writing library : libebml v1.4.2 + libmatroska v1.6.4

Video
ID : 1
Format : HEVC
Format/Info : High Efficiency Video Coding
Format profile : Main 10@L5.1@High
HDR format : SMPTE ST 2086, HDR10 compatible
Codec ID : V_MPEGH/ISO/HEVC
Duration : 1 h 58 min
Bit rate : 51.1 Mb/s
Width : 3 840 pixels
Height : 2 160 pixels
Display aspect ratio : 16:9
Frame rate mode : Constant
Frame rate : 23.976 (24000/1001) FPS
Color space : YUV
Chroma subsampling : 4:2:0 (Type 2)
Bit depth : 10 bits
Bits/(Pixel*Frame) : 0.257
Stream size : 42.4 GiB (86%)
Title : Más contenido en: PELICULASZI.COM
Language : English
Default : Yes
Forced : No
Color range : Limited
Color primaries : BT.2020
Transfer characteristics : PQ
Matrix coefficients : BT.2020 non-constant
Mastering display color pri : BT.2020
Mastering display luminance : min: 0.0050 cd/m2, max: 1000 cd/m2

Audio #1
ID : 2
Format : E-AC-3
Format/Info : Enhanced AC-3
Commercial name : Dolby Digital Plus
Format profile : Blu-ray Disc
Codec ID : A_EAC3
Duration : 1 h 58 min
Bit rate mode : Constant
Bit rate : 1 024 kb/s
Channel(s) : 8 channels
Channel layout : L R C LFE Ls Rs Lb Rb
Sampling rate : 48.0 kHz
Frame rate : 31.250 FPS (1536 SPF)
Compression mode : Lossy
Stream size : 870 MiB (2%)
Title : PELICULASZI.COM
Language : Spanish
Service kind : Complete Main
Default : Yes
Forced : No

Audio #2
ID : 3
Format : AC-3
Format/Info : Audio Coding 3
Commercial name : Dolby Digital
Codec ID : A_AC3
Duration : 1 h 58 min
Bit rate mode : Constant
Bit rate : 640 kb/s
Channel(s) : 6 channels
Channel layout : L R C LFE Ls Rs
Sampling rate : 48.0 kHz
Frame rate : 31.250 FPS (1536 SPF)
Compression mode : Lossy
Stream size : 544 MiB (1%)
Title : PELICULASZI.COM
Language : Spanish
Service kind : Complete Main
Default : Yes
Forced : No

Audio #3
ID : 4
Format : E-AC-3
Format/Info : Enhanced AC-3
Commercial name : Dolby Digital Plus
Format profile : Blu-ray Disc
Codec ID : A_EAC3
Duration : 1 h 58 min
Bit rate mode : Constant
Bit rate : 1 536 kb/s
Channel(s) : 8 channels
Channel layout : L R C LFE Ls Rs Lb Rb
Sampling rate : 48.0 kHz
Frame rate : 31.250 FPS (1536 SPF)
Compression mode : Lossy
Stream size : 1.27 GiB (3%)
Language : English
Service kind : Complete Main
Default : Yes
Forced : No

Audio #4
ID : 5
Format : MLP FBA 16-ch
Format/Info : Meridian Lossless Packing FBA with 16-channel presentation
Commercial name : Dolby TrueHD with Dolby Atmos
Codec ID : A_TRUEHD
Duration : 1 h 58 min
Bit rate mode : Variable
Bit rate : 4 691 kb/s
Maximum bit rate : 8 409 kb/s
Channel(s) : 8 channels
Channel layout : L R C LFE Ls Rs Lb Rb
Sampling rate : 48.0 kHz
Frame rate : 1 200.000 FPS (40 SPF)
Compression mode : Lossless
Stream size : 3.89 GiB (8%)
Language : English
Default : Yes
Forced : No
Number of dynamic objects : 13
Bed channel count : 1 channel
Bed channel configuration : LFE

Text #1
ID : 6
Format : PGS
Codec ID : S_HDMV/PGS
Codec ID/Info : Picture based subtitle format used on BDs/HD-DVDs
Duration : 1 h 58 min
Bit rate : 52.5 kb/s
Count of elements : 4548
Stream size : 44.4 MiB (0%)
Title : PELICULASZI.COM
Language : English
Default : No
Forced : No

Text #2
ID : 7
Format : PGS
Codec ID : S_HDMV/PGS
Codec ID/Info : Picture based subtitle format used on BDs/HD-DVDs
Duration : 1 h 57 min
Bit rate : 38.1 kb/s
Count of elements : 3224
Stream size : 32.1 MiB (0%)
Title : Español (Latinoamérica)
Language : Spanish
Default : No
Forced : No

Text #3
ID : 8
Format : PGS
Codec ID : S_HDMV/PGS
Codec ID/Info : Picture based subtitle format used on BDs/HD-DVDs
Duration : 1 h 43 min
Bit rate : 310 b/s
Count of elements : 28
Stream size : 237 KiB (0%)
Title : Forzados
Language : Spanish
Default : No
Forced : Yes

Text #4
ID : 9
Format : UTF-8
Codec ID : S_TEXT/UTF8
Codec ID/Info : UTF-8 Plain Text
Duration : 1 h 43 min
Bit rate : 0 b/s
Count of elements : 14
Stream size : 286 Bytes (0%)
Title : Forzados SRT
Language : Spanish
Default : No
Forced : No




Reportar Error Visitas: 122