Links Gratis

Zona de descargas de PELICULASZI.COM

Quitar Limites de descarga AQUI
Contraseña para descomprimir:
PELICULASZI.COM

Prisma (2022) Full HD Temporada 1 WEB-DL 1080p Dual-Latino

Gracias por visitarnos


LINKS (Solucionar Limite de descarga)
Contraseña para descomprimir: PELICULASZI.COM
Descargar por Google Drive (Hacer Copia a su Unidad)
Disponible solo para Usuarios VIP - Se miembro VIP
https://drive.google.com/drive/folders/15ukiecYY-aRtxkTl4mvAVT4DQ_zx2J2L?usp=sharing


Descargar por Uptobox
https://ouo.io/vNxmjVT
https://uptobox.com/sgjc0jbdcd67
https://uptobox.com/fts1kk21ro1b
https://uptobox.com/gh554xwvoobq
https://uptobox.com/lxycldizpoj6
https://uptobox.com/d24tebgtspr1
https://uptobox.com/4gcofpl1nfjc
https://uptobox.com/ghvyat1wyeea

Descargar por 1fichier
https://ouo.io/2qxdwS
https://1fichier.com/?9avhuqrsh300rzaz1hnt
https://1fichier.com/?dzw9idws3agf4vitfrxg
https://1fichier.com/?huxlgl94ct6ns0fe3var
https://1fichier.com/?idc8o59k3osfazz8og3a
https://1fichier.com/?ep9nbwdkxr76yji29i0n
https://1fichier.com/?grpilcwt4sik39h9kffj
https://1fichier.com/?n4o04ap8qdc6og0hvpm6

Para llegar a los links de descarga hay que pasar por 1 Acortador
Si eres de los que les molesta o no dan para pasar por los acotadores puedes obtener los beneficios de usuario VIP, obtén más información dando clic AQUI
Format : Matroska
Format version : Version 4
File size : 3.11 GiB
Duration : 49 min 30 s
Overall bit rate : 9 003 kb/s
Movie name : Más contenido en: PELICULASZI.COM
Encoded date : UTC 2022-09-21 10:04:07
Writing application : mkvmerge v61.0.0 ('So') 64-bit
Writing library : libebml v1.4.2 + libmatroska v1.6.4

Video
ID : 1
Format : AVC
Format/Info : Advanced Video Codec
Format profile : High@L4
Format settings : CABAC / 4 Ref Frames
Format settings, CABAC : Yes
Format settings, Reference : 4 frames
Codec ID : V_MPEG4/ISO/AVC
Duration : 49 min 30 s
Bit rate mode : Constant
Bit rate : 7 718 kb/s
Nominal bit rate : 10 000 kb/s
Width : 1 920 pixels
Height : 960 pixels
Display aspect ratio : 2.000
Frame rate mode : Constant
Frame rate : 25.000 FPS
Color space : YUV
Chroma subsampling : 4:2:0
Bit depth : 8 bits
Scan type : Progressive
Bits/(Pixel*Frame) : 0.167
Stream size : 2.67 GiB (86%)
Title : Más contenido en: PELICULASZI.COM
Language : Italian
Default : Yes
Forced : No
Color range : Limited
Color primaries : BT.709
Transfer characteristics : BT.709
Matrix coefficients : BT.709

Audio #1
ID : 2
Format : E-AC-3
Format/Info : Enhanced AC-3
Commercial name : Dolby Digital Plus
Codec ID : A_EAC3
Duration : 49 min 30 s
Bit rate mode : Constant
Bit rate : 640 kb/s
Channel(s) : 6 channels
Channel layout : L R C LFE Ls Rs
Sampling rate : 48.0 kHz
Frame rate : 31.250 FPS (1536 SPF)
Compression mode : Lossy
Stream size : 227 MiB (7%)
Title : PELICULASZI.COM
Language : Spanish
Service kind : Complete Main
Default : Yes
Forced : Yes

Audio #2
ID : 3
Format : E-AC-3
Format/Info : Enhanced AC-3
Commercial name : Dolby Digital Plus
Codec ID : A_EAC3
Duration : 49 min 30 s
Bit rate mode : Constant
Bit rate : 640 kb/s
Channel(s) : 6 channels
Channel layout : L R C LFE Ls Rs
Sampling rate : 48.0 kHz
Frame rate : 31.250 FPS (1536 SPF)
Compression mode : Lossy
Stream size : 227 MiB (7%)
Title : PELICULASZI.COM
Language : Italian
Service kind : Complete Main
Default : Yes
Forced : No

Text #1
ID : 4
Format : UTF-8
Codec ID : S_TEXT/UTF8
Codec ID/Info : UTF-8 Plain Text
Duration : 44 min 23 s
Bit rate : 46 b/s
Count of elements : 486
Stream size : 15.3 KiB (0%)
Title : PELICULASZI.COM
Language : Italian
Default : No
Forced : No

Text #2
ID : 5
Format : UTF-8
Codec ID : S_TEXT/UTF8
Codec ID/Info : UTF-8 Plain Text
Duration : 48 min 6 s
Bit rate : 67 b/s
Count of elements : 444
Stream size : 23.8 KiB (0%)
Title : العربية
Language : Arabic
Default : No
Forced : No

Text #3
ID : 6
Format : UTF-8
Codec ID : S_TEXT/UTF8
Codec ID/Info : UTF-8 Plain Text
Duration : 48 min 6 s
Bit rate : 35 b/s
Count of elements : 442
Stream size : 12.5 KiB (0%)
Title : Če¨tina
Language : Czech
Default : No
Forced : No

Text #4
ID : 7
Format : UTF-8
Codec ID : S_TEXT/UTF8
Codec ID/Info : UTF-8 Plain Text
Duration : 48 min 6 s
Bit rate : 36 b/s
Count of elements : 443
Stream size : 12.8 KiB (0%)
Title : Dansk
Language : Danish
Default : No
Forced : No

Text #5
ID : 8
Format : UTF-8
Codec ID : S_TEXT/UTF8
Codec ID/Info : UTF-8 Plain Text
Duration : 48 min 6 s
Bit rate : 39 b/s
Count of elements : 441
Stream size : 13.8 KiB (0%)
Title : Deutsch
Language : German
Default : No
Forced : No

Text #6
ID : 9
Format : UTF-8
Codec ID : S_TEXT/UTF8
Codec ID/Info : UTF-8 Plain Text
Duration : 48 min 6 s
Bit rate : 68 b/s
Count of elements : 444
Stream size : 24.1 KiB (0%)
Title : Ελληνικά
Language : Greek
Default : No
Forced : No

Text #7
ID : 10
Format : UTF-8
Codec ID : S_TEXT/UTF8
Codec ID/Info : UTF-8 Plain Text
Duration : 48 min 6 s
Bit rate : 36 b/s
Count of elements : 443
Stream size : 13.0 KiB (0%)
Title : Español (Latinoamérica)
Language : Spanish
Default : No
Forced : No

Text #8
ID : 11
Format : UTF-8
Codec ID : S_TEXT/UTF8
Codec ID/Info : UTF-8 Plain Text
Duration : 48 min 6 s
Bit rate : 37 b/s
Count of elements : 442
Stream size : 13.3 KiB (0%)
Title : Suomi
Language : Finnish
Default : No
Forced : No

Text #9
ID : 12
Format : UTF-8
Codec ID : S_TEXT/UTF8
Codec ID/Info : UTF-8 Plain Text
Duration : 48 min 6 s
Bit rate : 39 b/s
Count of elements : 442
Stream size : 13.9 KiB (0%)
Title : Filipino
Language : fil
Default : No
Forced : No

Text #10
ID : 13
Format : UTF-8
Codec ID : S_TEXT/UTF8
Codec ID/Info : UTF-8 Plain Text
Duration : 48 min 6 s
Bit rate : 34 b/s
Count of elements : 434
Stream size : 12.2 KiB (0%)
Title : Français
Language : French
Default : No
Forced : No

Text #11
ID : 14
Format : UTF-8
Codec ID : S_TEXT/UTF8
Codec ID/Info : UTF-8 Plain Text
Duration : 48 min 6 s
Bit rate : 59 b/s
Count of elements : 444
Stream size : 21.0 KiB (0%)
Title : עברית
Language : Hebrew
Default : No
Forced : No

Text #12
ID : 15
Format : UTF-8
Codec ID : S_TEXT/UTF8
Codec ID/Info : UTF-8 Plain Text
Duration : 48 min 6 s
Bit rate : 93 b/s
Count of elements : 444
Stream size : 32.9 KiB (0%)
Title : हिन्दी
Language : Hindi
Default : No
Forced : No

Text #13
ID : 16
Format : UTF-8
Codec ID : S_TEXT/UTF8
Codec ID/Info : UTF-8 Plain Text
Duration : 48 min 6 s
Bit rate : 38 b/s
Count of elements : 444
Stream size : 13.6 KiB (0%)
Title : Magyar
Language : Hungarian
Default : No
Forced : No

Text #14
ID : 17
Format : UTF-8
Codec ID : S_TEXT/UTF8
Codec ID/Info : UTF-8 Plain Text
Duration : 47 min 46 s
Bit rate : 36 b/s
Count of elements : 442
Stream size : 12.6 KiB (0%)
Title : Indonesia
Language : Indonesian
Default : No
Forced : No

Text #15
ID : 18
Format : UTF-8
Codec ID : S_TEXT/UTF8
Codec ID/Info : UTF-8 Plain Text
Duration : 48 min 30 s
Bit rate : 37 b/s
Count of elements : 515
Stream size : 13.5 KiB (0%)
Title : 日本語
Language : Japanese
Default : No
Forced : No

Text #16
ID : 19
Format : UTF-8
Codec ID : S_TEXT/UTF8
Codec ID/Info : UTF-8 Plain Text
Duration : 48 min 6 s
Bit rate : 44 b/s
Count of elements : 444
Stream size : 15.7 KiB (0%)
Title : 한국어
Language : Korean
Default : No
Forced : No

Text #17
ID : 20
Format : UTF-8
Codec ID : S_TEXT/UTF8
Codec ID/Info : UTF-8 Plain Text
Duration : 48 min 6 s
Bit rate : 38 b/s
Count of elements : 442
Stream size : 13.4 KiB (0%)
Title : Bahasa Melayu
Language : Malay
Default : No
Forced : No

Text #18
ID : 21
Format : UTF-8
Codec ID : S_TEXT/UTF8
Codec ID/Info : UTF-8 Plain Text
Duration : 47 min 56 s
Bit rate : 35 b/s
Count of elements : 443
Stream size : 12.5 KiB (0%)
Title : Norsk Bokmål
Language : Norwegian Bokmal
Default : No
Forced : No

Text #19
ID : 22
Format : UTF-8
Codec ID : S_TEXT/UTF8
Codec ID/Info : UTF-8 Plain Text
Duration : 48 min 6 s
Bit rate : 34 b/s
Count of elements : 441
Stream size : 12.2 KiB (0%)
Title : Nederlands
Language : Dutch
Default : No
Forced : No

Text #20
ID : 23
Format : UTF-8
Codec ID : S_TEXT/UTF8
Codec ID/Info : UTF-8 Plain Text
Duration : 48 min 6 s
Bit rate : 32 b/s
Count of elements : 440
Stream size : 11.3 KiB (0%)
Title : Polski
Language : Polish
Default : No
Forced : No

Text #21
ID : 24
Format : UTF-8
Codec ID : S_TEXT/UTF8
Codec ID/Info : UTF-8 Plain Text
Duration : 48 min 6 s
Bit rate : 36 b/s
Count of elements : 443
Stream size : 13.0 KiB (0%)
Title : Português (Portugal)
Language : Portuguese
Default : No
Forced : No

Text #22
ID : 25
Format : UTF-8
Codec ID : S_TEXT/UTF8
Codec ID/Info : UTF-8 Plain Text
Duration : 48 min 6 s
Bit rate : 35 b/s
Count of elements : 441
Stream size : 12.7 KiB (0%)
Title : Português (Brasil)
Language : Portuguese
Default : No
Forced : No

Text #23
ID : 26
Format : UTF-8
Codec ID : S_TEXT/UTF8
Codec ID/Info : UTF-8 Plain Text
Duration : 48 min 6 s
Bit rate : 38 b/s
Count of elements : 443
Stream size : 13.5 KiB (0%)
Title : Română
Language : Romanian
Default : No
Forced : No

Text #24
ID : 27
Format : UTF-8
Codec ID : S_TEXT/UTF8
Codec ID/Info : UTF-8 Plain Text
Duration : 48 min 6 s
Bit rate : 63 b/s
Count of elements : 443
Stream size : 22.3 KiB (0%)
Title : Русский
Language : Russian
Default : No
Forced : No

Text #25
ID : 28
Format : UTF-8
Codec ID : S_TEXT/UTF8
Codec ID/Info : UTF-8 Plain Text
Duration : 48 min 6 s
Bit rate : 36 b/s
Count of elements : 440
Stream size : 12.9 KiB (0%)
Title : Svenska
Language : Swedish
Default : No
Forced : No

Text #26
ID : 29
Format : UTF-8
Codec ID : S_TEXT/UTF8
Codec ID/Info : UTF-8 Plain Text
Duration : 48 min 6 s
Bit rate : 105 b/s
Count of elements : 444
Stream size : 37.1 KiB (0%)
Title : தமிழ்
Language : Tamil
Default : No
Forced : No

Text #27
ID : 30
Format : UTF-8
Codec ID : S_TEXT/UTF8
Codec ID/Info : UTF-8 Plain Text
Duration : 48 min 6 s
Bit rate : 89 b/s
Count of elements : 444
Stream size : 31.4 KiB (0%)
Title : తెలుగు
Language : Telugu
Default : No
Forced : No

Text #28
ID : 31
Format : UTF-8
Codec ID : S_TEXT/UTF8
Codec ID/Info : UTF-8 Plain Text
Duration : 47 min 56 s
Bit rate : 91 b/s
Count of elements : 443
Stream size : 32.1 KiB (0%)
Title : ไทย
Language : Thai
Default : No
Forced : No

Text #29
ID : 32
Format : UTF-8
Codec ID : S_TEXT/UTF8
Codec ID/Info : UTF-8 Plain Text
Duration : 48 min 6 s
Bit rate : 36 b/s
Count of elements : 443
Stream size : 12.9 KiB (0%)
Title : Türkçe
Language : Turkish
Default : No
Forced : No

Text #30
ID : 33
Format : UTF-8
Codec ID : S_TEXT/UTF8
Codec ID/Info : UTF-8 Plain Text
Duration : 48 min 6 s
Bit rate : 34 b/s
Count of elements : 444
Stream size : 12.1 KiB (0%)
Title : 中文(繁體)
Language : Chinese
Default : No
Forced : No

Text #31
ID : 34
Format : UTF-8
Codec ID : S_TEXT/UTF8
Codec ID/Info : UTF-8 Plain Text
Duration : 48 min 6 s
Bit rate : 36 b/s
Count of elements : 444
Stream size : 12.9 KiB (0%)
Title : 中文(简体)
Language : Chinese
Default : No
Forced : No

Text #32
ID : 35
Format : UTF-8
Codec ID : S_TEXT/UTF8
Codec ID/Info : UTF-8 Plain Text
Duration : 44 min 30 s
Bit rate : 6 b/s
Count of elements : 59
Stream size : 2.08 KiB (0%)
Language : Spanish
Default : Yes
Forced : Yes



Reportar Error Visitas: 40