Links Gratis

Zona de descargas de PELICULASZI.COM

Quitar Limites de descarga AQUI
ContraseƱa para descomprimir:
PELICULASZI.COM

Cadejo Blanco (2021) Full HD WEB-DL 1080p Latino

Gracias por visitarnos


LINKS (Solucionar Limite de descarga)
Contraseña para descomprimir: PELICULASZI.COM
Descargar por Google Drive (Hacer Copia a su Unidad)
Disponible solo para Usuarios VIP - Se miembro VIP
https://drive.google.com/file/d/1ylJYBTgBHl9y7Kk52vzz3Kr4rLX_BxV6/view?usp=sharing


Descargar por Uptobox
https://ouo.io/LCGOlv

Descargar por 1fichier
https://ouo.io/4osD4TY

Para llegar a los links de descarga hay que pasar por 1 Acortador
Si eres de los que les molesta o no dan para pasar por los acotadores puedes obtener los beneficios de usuario VIP, obtén más información dando clic AQUI
Format : Matroska
Format version : Version 4
File size : 5.50 GiB
Duration : 2 h 5 min
Overall bit rate : 6 254 kb/s
Movie name : Más contenido en: PELICULASZI.COM
Encoded date : UTC 2022-09-21 05:44:18
Writing application : mkvmerge v69.0.0 ('Day And Age') 64-bit
Writing library : libebml v1.4.2 + libmatroska v1.6.4

Video
ID : 1
Format : AVC
Format/Info : Advanced Video Codec
Format profile : High@L4
Format settings : CABAC / 2 Ref Frames
Format settings, CABAC : Yes
Format settings, Reference : 2 frames
Codec ID : V_MPEG4/ISO/AVC
Duration : 2 h 5 min
Bit rate : 5 868 kb/s
Width : 1 920 pixels
Height : 1 080 pixels
Display aspect ratio : 16:9
Frame rate mode : Constant
Frame rate : 24.000 FPS
Color space : YUV
Chroma subsampling : 4:2:0
Bit depth : 8 bits
Scan type : Progressive
Bits/(Pixel*Frame) : 0.118
Stream size : 5.16 GiB (94%)
Title : Más contenido en: PELICULASZI.COM
Writing library : x264 core 155 r2901 7d0ff22
Language : Spanish
Default : Yes
Forced : No
Color range : Limited
Color primaries : BT.709
Transfer characteristics : BT.709
Matrix coefficients : BT.709

Audio
ID : 2
Format : AC-3
Format/Info : Audio Coding 3
Commercial name : Dolby Digital
Codec ID : A_AC3
Duration : 2 h 5 min
Bit rate mode : Constant
Bit rate : 384 kb/s
Channel(s) : 6 channels
Channel layout : L R C LFE Ls Rs
Sampling rate : 48.0 kHz
Frame rate : 31.250 FPS (1536 SPF)
Compression mode : Lossy
Stream size : 346 MiB (6%)
Title : PELICULASZI.COM
Language : Spanish
Service kind : Complete Main
Default : Yes
Forced : No


Reportar Error Visitas: 47