Links Gratis

Zona de descargas de PELICULASZI.COM

Quitar Limites de descarga AQUI
ContraseƱa para descomprimir:
PELICULASZI.COM

Giant Spider (2021) HD WEB-DL 1080p Dual-Latino - PELICULASZI.COM


Gracias por visitarnos


LINKS (Solucionar Limite de descarga)
Contraseña para descomprimir: PELICULASZI.COM
Descargar por Google Drive (Hacer Copia a su Unidad)
Disponible solo para Usuarios VIP - Se miembro VIP
https://drive.google.com/file/d/18Z35sieGzGwF6wDi_YaR4hblW1LxlYfO/view?usp=sharing


Descargar por Uptobox
https://ouo.io/RkJQni

Descargar por 1fichier
https://ouo.io/PFZCtV

Para llegar a los links de descarga hay que pasar por 1 Acortador
Si eres de los que les molesta o no dan para pasar por los acotadores puedes obtener los beneficios de usuario VIP, obtén más información dando clic AQUI

Format : Matroska
Format version : Version 4
File size : 4.12 GiB
Duration : 1 h 24 min
Overall bit rate : 7 021 kb/s
Movie name : Más contenido en: PELICULASZI.COM
Encoded date : UTC 2022-09-22 04:50:37
Writing application : mkvmerge v69.0.0 ('Day And Age') 64-bit
Writing library : libebml v1.4.2 + libmatroska v1.6.4

Video
ID : 1
Format : AVC
Format/Info : Advanced Video Codec
Format profile : High@L4
Format settings : CABAC / 5 Ref Frames
Format settings, CABAC : Yes
Format settings, Reference : 5 frames
Codec ID : V_MPEG4/ISO/AVC
Duration : 1 h 24 min
Bit rate : 6 571 kb/s
Width : 1 920 pixels
Height : 840 pixels
Display aspect ratio : 2.25:1
Frame rate mode : Constant
Frame rate : 24.000 FPS
Color space : YUV
Chroma subsampling : 4:2:0
Bit depth : 8 bits
Scan type : Progressive
Bits/(Pixel*Frame) : 0.170
Stream size : 3.86 GiB (94%)
Title : Más contenido en: PELICULASZI.COM
Language : Spanish
Default : Yes
Forced : No
Color range : Limited
Color primaries : BT.709
Transfer characteristics : BT.709
Matrix coefficients : BT.709

Audio #1
ID : 2
Format : AC-3
Format/Info : Audio Coding 3
Commercial name : Dolby Digital
Codec ID : A_AC3
Duration : 1 h 24 min
Bit rate mode : Constant
Bit rate : 224 kb/s
Channel(s) : 2 channels
Channel layout : L R
Sampling rate : 48.0 kHz
Frame rate : 31.250 FPS (1536 SPF)
Compression mode : Lossy
Stream size : 135 MiB (3%)
Title : PELICULASZI.COM
Language : Spanish
Service kind : Complete Main
Default : Yes
Forced : No

Audio #2
ID : 3
Format : AC-3
Format/Info : Audio Coding 3
Commercial name : Dolby Digital
Codec ID : A_AC3
Duration : 1 h 24 min
Bit rate mode : Constant
Bit rate : 224 kb/s
Channel(s) : 2 channels
Channel layout : L R
Sampling rate : 48.0 kHz
Frame rate : 31.250 FPS (1536 SPF)
Compression mode : Lossy
Stream size : 135 MiB (3%)
Title : PELICULASZI.COM
Language : Chinese
Service kind : Complete Main
Default : Yes
Forced : No

Text
ID : 4
Format : UTF-8
Codec ID : S_TEXT/UTF8
Codec ID/Info : UTF-8 Plain Text
Duration : 1 h 22 min
Bit rate : 29 b/s
Count of elements : 525
Stream size : 18.1 KiB (0%)
Title : PELICULASZI.COM
Language : Spanish
Default : No
Forced : No




Reportar Error Visitas: 57