Links Gratis

Zona de descargas de PELICULASZI.COM

Quitar Limites de descarga AQUI
ContraseƱa para descomprimir:
PELICULASZI.COM

Toda la sangre (2022) Full HD Temporada 1 WEB-DL 1080p Dual-Latino

Gracias por visitarnos


LINKS (Solucionar Limite de descarga)
Contraseña para descomprimir: PELICULASZI.COM
Descargar por Google Drive (Hacer Copia a su Unidad)
Disponible solo para Usuarios VIP - Se miembro VIP
https://drive.google.com/drive/folders/1CY8cl4geZTtEkWvVDCnezT6MHQ9OJqoi?usp=sharing


Descargar por Uptobox
https://ouo.io/cmXEWl
https://uptobox.com/uknc8dfed14j
https://uptobox.com/z898mvivxwz3

Descargar por 1fichier
https://ouo.io/PX8mgiz
https://1fichier.com/?8q38kpg80aw9rj53kywr
https://1fichier.com/?twn02g66qsrvcwcxfvl9

Para llegar a los links de descarga hay que pasar por 1 Acortador
Si eres de los que les molesta o no dan para pasar por los acotadores puedes obtener los beneficios de usuario VIP, obtén más información dando clic AQUI
Format : Matroska
Format version : Version 4
File size : 1.19 GiB
Duration : 47 min 2 s
Overall bit rate mode : Variable
Overall bit rate : 3 619 kb/s
Movie name : Más contenido en: PELICULASZI.COM
Encoded date : UTC 2022-09-19 19:55:00
Writing application : mkvmerge v69.0.0 ('Day And Age') 64-bit
Writing library : libebml v1.4.2 + libmatroska v1.6.4

Video
ID : 1
Format : AVC
Format/Info : Advanced Video Codec
Format profile : High@L4
Format settings : CABAC / 4 Ref Frames
Format settings, CABAC : Yes
Format settings, Reference : 4 frames
Codec ID : V_MPEG4/ISO/AVC
Duration : 47 min 2 s
Bit rate mode : Variable
Bit rate : 3 233 kb/s
Maximum bit rate : 40.0 Mb/s
Width : 1 920 pixels
Height : 1 080 pixels
Display aspect ratio : 16:9
Frame rate mode : Constant
Frame rate : 23.976 (24000/1001) FPS
Color space : YUV
Chroma subsampling : 4:2:0
Bit depth : 8 bits
Scan type : Progressive
Bits/(Pixel*Frame) : 0.065
Stream size : 1.06 GiB (89%)
Title : Más contenido en: PELICULASZI.COM
Language : Spanish
Default : Yes
Forced : No

Audio
ID : 2
Format : AC-3
Format/Info : Audio Coding 3
Commercial name : Dolby Digital
Codec ID : A_AC3
Duration : 47 min 2 s
Bit rate mode : Constant
Bit rate : 384 kb/s
Channel(s) : 6 channels
Channel layout : L R C LFE Ls Rs
Sampling rate : 48.0 kHz
Frame rate : 31.250 FPS (1536 SPF)
Compression mode : Lossy
Delay relative to video : 19 ms
Stream size : 129 MiB (11%)
Title : PELICULASZI.COM
Language : Spanish
Service kind : Complete Main
Default : Yes
Forced : No

Text
ID : 3
Format : UTF-8
Codec ID : S_TEXT/UTF8
Codec ID/Info : UTF-8 Plain Text
Duration : 46 min 56 s
Bit rate : 62 b/s
Count of elements : 797
Stream size : 21.6 KiB (0%)
Title : Español (Latinoamérica)
Language : Spanish
Default : No
Forced : No



Reportar Error Visitas: 162