Links Gratis

Zona de descargas de PELICULASZI.COM

Quitar Limites de descarga AQUI
ContraseƱa para descomprimir:
PELICULASZI.COM

From (2022) Full HD Temporada 1 WEB-DL 1080p Dual-Latino

Gracias por visitarnos


LINKS (Solucionar Limite de descarga)
Contraseña para descomprimir: PELICULASZI.COM
Descargar por Google Drive (Hacer Copia a su Unidad)
Disponible solo para Usuarios VIP - Se miembro VIP
https://drive.google.com/drive/folders/1mpLPTRxUy01dmEc-Filp8zP_X6E3RLey?usp=sharing


Descargar por Uptobox
https://ouo.io/vtK2vA
https://ouo.io/UjMvCX
https://exe.io/yrId9M
https://uii.io/bKjkfNryv
https://uptobox.com/eh5l1ki0a8tf
https://uptobox.com/mvbcted4jshd
https://uii.io/E221h
https://uptobox.com/4k6yk8uw8ljx
https://uii.io/OsEBaaW4x
https://uptobox.com/2ec7k34p9zai

Descargar por 1fichier
https://ouo.io/3YkQ8r
https://ouo.io/Y3D8wT
https://exe.io/DRbh
https://uii.io/DRNoUNq
https://1fichier.com/?8mtmg758msktbpo6b5xs
https://1fichier.com/?olfvf2n8xwx3jglwebdl
https://uii.io/18yCp9Vg
https://1fichier.com/?40pdwg3fo778k0xu8rx5
https://uii.io/PY98TowID
https://1fichier.com/?ya61y7eznld50mjrko30

Para llegar a los links de descarga hay que pasar por 1 Acortador
Si eres de los que les molesta o no dan para pasar por los acotadores puedes obtener los beneficios de usuario VIP, obtén más información dando clic AQUI
Format : Matroska
Format version : Version 4
File size : 866 MiB
Duration : 52 min 32 s
Overall bit rate mode : Variable
Overall bit rate : 2 304 kb/s
Movie name : Más contenido en: PELICULASZI.COM
Encoded date : UTC 2022-10-04 03:48:51
Writing application : mkvmerge v46.0.0 ('No Deeper Escape') 64-bit
Writing library : libebml v1.3.10 + libmatroska v1.5.2

Video
ID : 1
Format : AVC
Format/Info : Advanced Video Codec
Format profile : Main@L4
Format settings : CABAC / 1 Ref Frames
Format settings, CABAC : Yes
Format settings, Reference : 1 frame
Codec ID : V_MPEG4/ISO/AVC
Duration : 52 min 32 s
Bit rate mode : Variable
Bit rate : 2 045 kb/s
Maximum bit rate : 6 000 kb/s
Width : 1 920 pixels
Height : 1 080 pixels
Display aspect ratio : 16:9
Frame rate mode : Constant
Frame rate : 30.000 FPS
Color space : YUV
Chroma subsampling : 4:2:0
Bit depth : 8 bits
Scan type : Progressive
Bits/(Pixel*Frame) : 0.033
Stream size : 768 MiB (89%)
Title : Más contenido en: PELICULASZI.COM
Language : Spanish
Default : Yes
Forced : No

Audio #1
ID : 2
Format : AAC LC
Format/Info : Advanced Audio Codec Low Complexity
Codec ID : A_AAC-2
Duration : 52 min 32 s
Bit rate : 128 kb/s
Channel(s) : 2 channels
Channel layout : L R
Sampling rate : 44.1 kHz
Frame rate : 43.066 FPS (1024 SPF)
Compression mode : Lossy
Delay relative to video : 5 ms
Stream size : 48.1 MiB (6%)
Title : PELICULASZI.COM
Language : Spanish
Default : Yes
Forced : Yes

Audio #2
ID : 3
Format : AAC LC
Format/Info : Advanced Audio Codec Low Complexity
Codec ID : A_AAC-2
Duration : 52 min 32 s
Bit rate : 128 kb/s
Channel(s) : 2 channels
Channel layout : L R
Sampling rate : 44.1 kHz
Frame rate : 43.066 FPS (1024 SPF)
Compression mode : Lossy
Delay relative to video : 5 ms
Stream size : 48.1 MiB (6%)
Title : PELICULASZI.COM
Language : English
Default : No
Forced : No

Text
ID : 4
Format : UTF-8
Codec ID : S_TEXT/UTF8
Codec ID/Info : UTF-8 Plain Text
Duration : 50 min 25 s
Bit rate : 49 b/s
Count of elements : 720
Stream size : 18.3 KiB (0%)
Title : PELICULASZI.COM
Language : Spanish
Default : No
Forced : No



Reportar Error Visitas: 325