Links Gratis

Zona de descargas de PELICULASZI.COM

Quitar Limites de descarga AQUI
ContraseƱa para descomprimir:
PELICULASZI.COM

Barbarian (2022) HD WEB-DL 1080p Dual-Latino - PELICULASZI.COM


Gracias por visitarnos


LINKS (Solucionar Limite de descarga)
Contraseña para descomprimir: PELICULASZI.COM
Descargar por Google Drive (Hacer Copia a su Unidad)
Disponible solo para Usuarios VIP - Se miembro VIP
https://drive.google.com/file/d/1CvZx3ILivClFOMIKjTTqGRY13N7P9jn5/view?usp=sharing


Descargar por Uptobox Sin límites: https://uptobox.peliculaszi.com
https://ouo.io/nA0azR

Descargar por 1fichier
https://ouo.io/y1FwCS

Para llegar a los links de descarga hay que pasar por 1 Acortador
Si eres de los que les molesta o no dan para pasar por los acotadores puedes obtener los beneficios de usuario VIP, obtén más información dando clic AQUI

Format : Matroska
Format version : Version 4
File size : 3.33 GiB
Duration : 1 h 42 min
Overall bit rate : 4 636 kb/s
Movie name : Más contenido en: PELICULASZI.COM
Encoded date : UTC 2022-10-25 07:03:10
Writing application : mkvmerge v61.0.0 ('So') 32-bit
Writing library : libebml v1.4.2 + libmatroska v1.6.4

Video
ID : 1
Format : AVC
Format/Info : Advanced Video Codec
Format profile : High@L4
Format settings : CABAC / 4 Ref Frames
Format settings, CABAC : Yes
Format settings, Reference : 4 frames
Codec ID : V_MPEG4/ISO/AVC
Duration : 1 h 42 min
Bit rate : 3 868 kb/s
Width : 1 918 pixels
Height : 1 036 pixels
Display aspect ratio : 1.85:1
Frame rate mode : Constant
Frame rate : 23.976 FPS
Color space : YUV
Chroma subsampling : 4:2:0
Bit depth : 8 bits
Scan type : Progressive
Bits/(Pixel*Frame) : 0.081
Stream size : 2.78 GiB (83%)
Title : Más contenido en: PELICULASZI.COM
Language : English
Default : Yes
Forced : No
Color range : Limited
Color primaries : BT.709
Transfer characteristics : BT.709
Matrix coefficients : BT.709

Audio #1
ID : 2
Format : AC-3
Format/Info : Audio Coding 3
Commercial name : Dolby Digital
Codec ID : A_AC3
Duration : 1 h 42 min
Bit rate mode : Constant
Bit rate : 384 kb/s
Channel(s) : 6 channels
Channel layout : L R C LFE Ls Rs
Sampling rate : 48.0 kHz
Frame rate : 31.250 FPS (1536 SPF)
Compression mode : Lossy
Stream size : 282 MiB (8%)
Title : PELICULASZI.COM
Language : Spanish
Service kind : Complete Main
Default : Yes
Forced : Yes

Audio #2
ID : 3
Format : AC-3
Format/Info : Audio Coding 3
Commercial name : Dolby Digital
Codec ID : A_AC3
Duration : 1 h 42 min
Bit rate mode : Constant
Bit rate : 384 kb/s
Channel(s) : 6 channels
Channel layout : L R C LFE Ls Rs
Sampling rate : 48.0 kHz
Frame rate : 31.250 FPS (1536 SPF)
Compression mode : Lossy
Stream size : 282 MiB (8%)
Language : English
Service kind : Complete Main
Default : No
Forced : No

Text #1
ID : 4
Format : UTF-8
Codec ID : S_TEXT/UTF8
Codec ID/Info : UTF-8 Plain Text
Duration : 1 h 19 min
Bit rate : 0 b/s
Count of elements : 3
Stream size : 91.0 Bytes (0%)
Title : PELICULASZI.COM
Language : Spanish
Default : No
Forced : Yes

Text #2
ID : 5
Format : UTF-8
Codec ID : S_TEXT/UTF8
Codec ID/Info : UTF-8 Plain Text
Duration : 1 h 40 min
Bit rate : 47 b/s
Count of elements : 1191
Stream size : 34.9 KiB (0%)
Language : Spanish
Default : No
Forced : No

Menu
00:00:00.000 : Chapter 01
00:06:03.571 : Chapter 02
00:11:23.600 : Chapter 03
00:18:24.354 : Chapter 04
00:22:35.105 : Chapter 05
00:26:19.120 : Chapter 06
00:30:08.725 : Chapter 07
00:37:06.393 : Chapter 08
00:42:46.566 : Chapter 09
00:46:27.662 : Chapter 10
00:50:36.619 : Chapter 11
00:54:14.838 : Chapter 12
00:56:35.770 : Chapter 13
01:01:48.375 : Chapter 14
01:06:07.008 : Chapter 15
01:12:14.209 : Chapter 16
01:18:40.679 : Chapter 17
01:25:17.200 : Chapter 18
01:29:16.439 : Chapter 19
01:37:02.822 : Chapter 20




Reportar Error Visitas: 88