Links Gratis

Zona de descargas de PELICULASZI.COM

Quitar Limites de descarga AQUI
Contraseña para descomprimir:
PELICULASZI.COM

Zootopia+ (2022) Full HD Temporada 1 WEB-DL 1080p Dual-Latino

Gracias por visitarnos


LINKS (Solucionar Limite de descarga)
Contraseña para descomprimir: PELICULASZI.COM
Descargar por Google Drive (Hacer Copia a su Unidad)
Disponible solo para Usuarios VIP - Se miembro VIP
https://drive.google.com/drive/folders/1boGp5aPNi6tVHyJihzQicP4mHYj4SIGt?usp=share_link


Descargar por Uptobox Sin límites: https://uptobox.peliculaszi.com
https://ouo.io/BUTev8
https://uptobox.com/ny6rdv757bge
https://uptobox.com/iuzqyimmbt4g
https://uptobox.com/urqphwzk4pvl
https://uptobox.com/vcdlryvphb9j
https://uptobox.com/zjv8ky16cc4p

Descargar por 1fichier
https://ouo.io/1YY2wl
https://1fichier.com/?lapt1o00gxytoxqeqr2z
https://1fichier.com/?9ypfb5n4ky4abm887gw4
https://1fichier.com/?hofulp13p5e2hhubxkna
https://1fichier.com/?lx6dlzq1o63dhk8ld551
https://1fichier.com/?z3ok7ha4ee27dxqepk7m

Para llegar a los links de descarga hay que pasar por 1 Acortador
Si eres de los que les molesta o no dan para pasar por los acotadores puedes obtener los beneficios de usuario VIP, obtén más información dando clic AQUI
Format : Matroska
Format version : Version 4
File size : 404 MiB
Duration : 6 min 47 s
Overall bit rate mode : Variable
Overall bit rate : 8 315 kb/s
Movie name : Más contenido en: PELICULASZI.COM
Encoded date : UTC 2022-11-09 13:44:53
Writing application : mkvmerge v71.1.0 ('Fortitude') 64-bit
Writing library : libebml v1.4.4 + libmatroska v1.7.1

Video
ID : 1
Format : AVC
Format/Info : Advanced Video Codec
Format profile : High@L4
Format settings : CABAC / 4 Ref Frames
Format settings, CABAC : Yes
Format settings, Reference : 4 frames
Codec ID : V_MPEG4/ISO/AVC
Duration : 6 min 47 s
Bit rate mode : Variable
Bit rate : 7 288 kb/s
Maximum bit rate : 12.7 Mb/s
Width : 1 920 pixels
Height : 1 080 pixels
Display aspect ratio : 16:9
Frame rate mode : Constant
Frame rate : 24.000 FPS
Color space : YUV
Chroma subsampling : 4:2:0
Bit depth : 8 bits
Scan type : Progressive
Bits/(Pixel*Frame) : 0.146
Stream size : 354 MiB (88%)
Title : Más contenido en: PELICULASZI.COM
Language : Spanish
Default : No
Forced : No
Color range : Limited
Color primaries : BT.709
Transfer characteristics : BT.709
Matrix coefficients : BT.709

Audio #1
ID : 2
Format : E-AC-3
Format/Info : Enhanced AC-3
Commercial name : Dolby Digital Plus
Codec ID : A_EAC3
Duration : 6 min 47 s
Bit rate mode : Constant
Bit rate : 256 kb/s
Channel(s) : 6 channels
Channel layout : L R C LFE Ls Rs
Sampling rate : 48.0 kHz
Frame rate : 31.250 FPS (1536 SPF)
Compression mode : Lossy
Stream size : 12.4 MiB (3%)
Title : PELICULASZI.COM
Language : Spanish
Service kind : Complete Main
Default : Yes
Forced : No

Audio #2
ID : 3
Format : E-AC-3 JOC
Format/Info : Enhanced AC-3 with Joint Object Coding
Commercial name : Dolby Digital Plus with Dolby Atmos
Codec ID : A_EAC3
Duration : 6 min 47 s
Bit rate mode : Constant
Bit rate : 768 kb/s
Channel(s) : 6 channels
Channel layout : L R C LFE Ls Rs
Sampling rate : 48.0 kHz
Frame rate : 31.250 FPS (1536 SPF)
Compression mode : Lossy
Stream size : 37.3 MiB (9%)
Language : English
Service kind : Complete Main
Default : Yes
Forced : No
Complexity index : 16
Number of dynamic objects : 15
Bed channel count : 1 channel
Bed channel configuration : LFE

Text #1
ID : 4
Format : UTF-8
Codec ID : S_TEXT/UTF8
Codec ID/Info : UTF-8 Plain Text
Duration : 5 min 38 s
Bit rate : 78 b/s
Count of elements : 119
Stream size : 3.26 KiB (0%)
Title : English
Language : English
Default : No
Forced : No

Text #2
ID : 5
Format : UTF-8
Codec ID : S_TEXT/UTF8
Codec ID/Info : UTF-8 Plain Text
Duration : 6 min 14 s
Bit rate : 70 b/s
Count of elements : 118
Stream size : 3.21 KiB (0%)
Title : Español (Latinoamérica)
Language : Spanish
Default : No
Forced : No

Text #3
ID : 6
Format : UTF-8
Codec ID : S_TEXT/UTF8
Codec ID/Info : UTF-8 Plain Text
Duration : 2 min 45 s
Bit rate : 5 b/s
Count of elements : 4
Stream size : 111 Bytes (0%)
Title : Forzados
Language : Spanish
Default : No
Forced : Yes




Reportar Links Caídos Visitas: 183