Links Gratis

Zona de descargas de PELICULASZI.COM

Quitar Limites de descarga AQUI
Contraseña para descomprimir:
PELICULASZI.COM

La Brea (2022) Full HD Temporada 2 WEB-DL 1080p Dual-Latino

Gracias por visitarnos


LINKS (Solucionar Limite de descarga)
Contraseña para descomprimir: PELICULASZI.COM
Descargar por Google Drive (Hacer Copia a su Unidad)
Disponible solo para Usuarios VIP - Se miembro VIP
https://drive.google.com/drive/folders/1DMmn2Q3JxcEcJPETT0NChGSSsQRT1XlS?usp=share_link


Descargar por Uptobox Sin límites: https://uptobox.peliculaszi.com
https://uii.io/owWZ0T8ZJ
https://uptobox.com/zqsgps00zzgj
https://uptobox.com/8trdnm0y8tat
https://uptobox.com/k48lvdh2hfnv
https://uptobox.com/4c2vcpvrlwmk
https://uptobox.com/8rs8tquq3tsj
https://uptobox.com/uyy5cp2cvt69
https://uptobox.com/ujnhhtyjowsm
https://exe.io/gELH
https://exe.io/n7b1A
https://uptobox.com/mzphihj7tomf
https://exe.io/rP4QXn0
https://uptobox.com/6l4jnu044kgg
https://uptobox.com/u037pghd0ry5

Descargar por 1fichier
https://uii.io/55y3WqZQW
https://1fichier.com/?6w3aklke93nz9ptoc6u4
https://1fichier.com/?e7rq15zq0bk69rj1m6y2
https://1fichier.com/?srh98jmqovlum4563p4t
https://1fichier.com/?vgib82wvdzcg74soa4cj
https://1fichier.com/?61mu5441lryvfck8cc4x
https://1fichier.com/?8efa2mlu71pu59nnl9u1
https://1fichier.com/?1496c6pjmgocguc44kqh
https://exe.io/bHfj6K
https://exe.io/NDhP0
https://1fichier.com/?uu7ykv8f7ehxq931vn7y
https://exe.io/mhWXI
https://1fichier.com/?h3egglkvzfmlpsimok1t
https://1fichier.com/?ya7b23rqahnccyw31f1a

Descargar por DooDrive
https://uii.io/Hc0wZgzh
https://doodrive.com/f/6xxjjm
https://doodrive.com/f/qzd6nw
https://doodrive.com/f/pz2do8
https://doodrive.com/f/yp1zkn
https://doodrive.com/f/67m6kp
https://doodrive.com/f/w3v6g1
https://doodrive.com/f/44978q
https://doodrive.com/f/9q2y0v
https://exe.io/5QTgE
https://doodrive.com/f/e7djnx
https://exe.io/FSlpb
https://doodrive.com/f/7em2ev
https://doodrive.com/f/6em4wk

Descargar por MegaUp
https://uii.io/iFb1gtsSU
https://megaup.net/1SY90/La_Brea_T02-E04.mkv
https://megaup.net/1SY2w/La_Brea_T02-E05.mkv
https://megaup.net/1Tguj/La_Brea_T02-E06.mkv
https://megaup.net/1dj2k/La_Brea_T02-E07.mkv
https://megaup.net/1Txe7/La_Brea_T02-E08.mkv
https://exe.io/ii18bK
https://exe.io/qnZQ8
https://gofile.io/d/f7mCDM
https://exe.io/veJrm3W
https://gofile.io/d/gdGnQb
https://gofile.io/d/I3M0tX

Para llegar a los links de descarga hay que pasar por 1 Acortador
Si eres de los que les molesta o no dan para pasar por los acotadores puedes obtener los beneficios de usuario VIP, obtén más información dando clic AQUI
Format : Matroska
Format version : Version 4
File size : 2.56 GiB
Duration : 40 min 45 s
Overall bit rate mode : Variable
Overall bit rate : 9 001 kb/s
Movie name : Más contenido en: PELICULASZI.COM
Encoded date : UTC 2022-12-06 01:20:00
Writing application : mkvmerge v58.0.0 ('Supper's Ready') 32-bit
Writing library : libebml v1.4.2 + libmatroska v1.6.4

Video
ID : 1
Format : AVC
Format/Info : Advanced Video Codec
Format profile : High@L4
Format settings : CABAC / 4 Ref Frames
Format settings, CABAC : Yes
Format settings, Reference : 4 frames
Codec ID : V_MPEG4/ISO/AVC
Duration : 40 min 45 s
Bit rate mode : Variable
Bit rate : 8 250 kb/s
Maximum bit rate : 12.4 Mb/s
Width : 1 920 pixels
Height : 1 080 pixels
Display aspect ratio : 16:9
Frame rate mode : Constant
Frame rate : 25.000 FPS
Color space : YUV
Chroma subsampling : 4:2:0
Bit depth : 8 bits
Scan type : Progressive
Bits/(Pixel*Frame) : 0.159
Stream size : 2.34 GiB (91%)
Title : Más contenido en: PELICULASZI.COM
Writing library : x264 core 157 r2965 861cec4
Encoding settings : cabac=1 / ref=4 / deblock=1:0:0 / analyse=0x3:0x113 / me=hex / subme=7 / psy=1 / psy_rd=1.00:0.00 / mixed_ref=1 / me_range=16 / chroma_me=1 / trellis=1 / 8x8dct=1 / cqm=0 / deadzone=21,11 / fast_pskip=1 / chroma_qp_offset=-2 / threads=34 / lookahead_threads=5 / sliced_threads=0 / nr=0 / decimate=1 / interlaced=0 / bluray_compat=0 / constrained_intra=0 / bframes=3 / b_pyramid=2 / b_adapt=1 / b_bias=0 / direct=1 / weightb=1 / open_gop=0 / weightp=2 / keyint=100 / keyint_min=100 / scenecut=40 / intra_refresh=0 / rc_lookahead=40 / rc=2pass / mbtree=1 / bitrate=8250 / ratetol=1.0 / qcomp=0.60 / qpmin=0 / qpmax=69 / qpstep=4 / cplxblur=20.0 / qblur=0.5 / vbv_maxrate=12375 / vbv_bufsize=6187 / nal_hrd=vbr / filler=0 / ip_ratio=1.40 / aq=1:1.00
Default : Yes
Forced : No
Color range : Limited
Color primaries : BT.709
Transfer characteristics : BT.709
Matrix coefficients : BT.709

Audio #1
ID : 2
Format : AC-3
Format/Info : Audio Coding 3
Commercial name : Dolby Digital
Codec ID : A_AC3
Duration : 40 min 44 s
Bit rate mode : Constant
Bit rate : 384 kb/s
Channel(s) : 6 channels
Channel layout : L R C LFE Ls Rs
Sampling rate : 48.0 kHz
Frame rate : 31.250 FPS (1536 SPF)
Compression mode : Lossy
Stream size : 112 MiB (4%)
Title : PELICULASZI.COM
Language : Spanish
Service kind : Complete Main
Default : No
Forced : No

Audio #2
ID : 3
Format : AC-3
Format/Info : Audio Coding 3
Commercial name : Dolby Digital
Codec ID : A_AC3
Duration : 40 min 44 s
Bit rate mode : Constant
Bit rate : 384 kb/s
Channel(s) : 6 channels
Channel layout : L R C LFE Ls Rs
Sampling rate : 48.0 kHz
Frame rate : 31.250 FPS (1536 SPF)
Compression mode : Lossy
Stream size : 112 MiB (4%)
Title : PELICULASZI.COM
Language : English
Service kind : Complete Main
Default : No
Forced : No

Text #1
ID : 4
Format : UTF-8
Codec ID : S_TEXT/UTF8
Codec ID/Info : UTF-8 Plain Text
Duration : 30 s 640 ms
Bit rate : 13 b/s
Count of elements : 2
Stream size : 50.0 Bytes (0%)
Title : PELICULASZI.COM
Language : Spanish
Default : No
Forced : Yes

Text #2
ID : 5
Format : UTF-8
Codec ID : S_TEXT/UTF8
Codec ID/Info : UTF-8 Plain Text
Duration : 40 min 8 s
Bit rate : 55 b/s
Count of elements : 473
Stream size : 16.3 KiB (0%)
Language : Spanish
Default : No
Forced : No

Text #3
ID : 6
Format : UTF-8
Codec ID : S_TEXT/UTF8
Codec ID/Info : UTF-8 Plain Text
Duration : 39 min 54 s
Bit rate : 65 b/s
Count of elements : 595
Stream size : 19.2 KiB (0%)
Language : English
Default : No
Forced : No



Reportar Links Caídos Visitas: 943