Links Gratis

Zona de descargas de PELICULASZI.COM

Quitar Limites de descarga AQUI
ContraseƱa para descomprimir:
PELICULASZI.COM

The Law According to Lidia Poët (2023) Full HD Temporada 1 WEB-DL 1080p Dual-Latino

Gracias por visitarnos


LINKS (Solucionar Limite de descarga)
Contraseña para descomprimir: PELICULASZI.COM
Descargar por Google Drive (Hacer Copia a su Unidad)
Disponible solo para Usuarios VIP - Se miembro VIP
https://drive.google.com/drive/folders/1arAhhnRJ0tUSUpGsbOeoXFVKf2l-_J51?usp=share_link


Descargar por Uptobox Sin límites: https://uptobox.peliculaszi.com
https://uii.io/r1OLem6QRI
https://uptobox.com/dobasc0cqsm5
https://uptobox.com/hu8hycdbza00
https://uptobox.com/erdldzor3o9f
https://uptobox.com/ti159ahktxvx
https://uptobox.com/mojgfvrwa3c5

Descargar por 1fichier
https://uii.io/rnMNVosXu
https://1fichier.com/?emk85vixl8r61xy9335d
https://1fichier.com/?fifvp4pvgzxn3ler1ldk
https://1fichier.com/?kspruz22qb7q3pw58x0q
https://1fichier.com/?w34uuwmxtg5kvwzjw5ps
https://1fichier.com/?rhdk6p15wivzrv8mmnjb

Descargar por DooDrive
https://uii.io/RXFi
https://doodrive.com/f/ypd4gn
https://doodrive.com/f/6x6on6
https://doodrive.com/f/x2dk86
https://doodrive.com/f/9937vn
https://doodrive.com/f/pz9woj

Descargar por MegaUp
https://uii.io/5PqkvxL

Para llegar a los links de descarga hay que pasar por 1 Acortador
Si eres de los que les molesta o no dan para pasar por los acotadores puedes obtener los beneficios de usuario VIP, obtén más información dando clic AQUI
Format : Matroska
Format version : Version 4
File size : 2.26 GiB
Duration : 47 min 28 s
Overall bit rate mode : Variable
Overall bit rate : 6 810 kb/s
Movie name : Más contenido en: PELICULASZI.COM
Encoded date : UTC 2023-02-15 09:04:40
Writing application : mkvmerge v61.0.0 ('So') 64-bit
Writing library : libebml v1.4.2 + libmatroska v1.6.4

Video
ID : 1
Format : AVC
Format/Info : Advanced Video Codec
Format profile : Main@L4
Format settings : CABAC / 3 Ref Frames
Format settings, CABAC : Yes
Format settings, Reference : 3 frames
Codec ID : V_MPEG4/ISO/AVC
Duration : 47 min 28 s
Bit rate mode : Variable
Bit rate : 5 800 kb/s
Maximum bit rate : 8 700 kb/s
Width : 1 920 pixels
Height : 1 080 pixels
Display aspect ratio : 16:9
Frame rate mode : Constant
Frame rate : 24.000 FPS
Color space : YUV
Chroma subsampling : 4:2:0
Bit depth : 8 bits
Scan type : Progressive
Bits/(Pixel*Frame) : 0.117
Stream size : 1.83 GiB (81%)
Title : Más contenido en: PELICULASZI.COM
Writing library : x264 core 148 r2727 7d026e8
Encoding settings : cabac=1 / ref=3 / deblock=1:0:0 / analyse=0x1:0x111 / me=umh / subme=10 / psy=1 / psy_rd=1.00:0.00 / mixed_ref=1 / me_range=24 / chroma_me=1 / trellis=2 / 8x8dct=0 / cqm=0 / deadzone=21,11 / fast_pskip=1 / chroma_qp_offset=-2 / threads=8 / lookahead_threads=1 / sliced_threads=0 / nr=0 / decimate=1 / interlaced=0 / bluray_compat=0 / stitchable=1 / constrained_intra=0 / bframes=2 / b_pyramid=0 / b_adapt=2 / b_bias=0 / direct=3 / weightb=1 / open_gop=0 / weightp=2 / keyint=250 / keyint_min=24 / scenecut=0 / intra_refresh=0 / rc_lookahead=48 / rc=2pass / mbtree=1 / bitrate=5800 / ratetol=1.0 / qcomp=0.50 / qpmin=6 / qpmax=51 / qpstep=4 / cplxblur=20.0 / qblur=0.5 / vbv_maxrate=8700 / vbv_bufsize=11600 / nal_hrd=vbr / filler=0 / ip_ratio=1.40 / aq=1:1.00
Default : Yes
Forced : No

Audio #1
ID : 2
Format : E-AC-3
Format/Info : Enhanced AC-3
Commercial name : Dolby Digital Plus
Codec ID : A_EAC3
Duration : 47 min 28 s
Bit rate mode : Constant
Bit rate : 640 kb/s
Channel(s) : 6 channels
Channel layout : L R C LFE Ls Rs
Sampling rate : 48.0 kHz
Frame rate : 31.250 FPS (1536 SPF)
Compression mode : Lossy
Stream size : 217 MiB (9%)
Title : PELICULASZI.COM
Language : Spanish
Service kind : Complete Main
Default : No
Forced : Yes

Audio #2
ID : 3
Format : E-AC-3
Format/Info : Enhanced AC-3
Commercial name : Dolby Digital Plus
Codec ID : A_EAC3
Duration : 47 min 28 s
Bit rate mode : Constant
Bit rate : 640 kb/s
Channel(s) : 6 channels
Channel layout : L R C LFE Ls Rs
Sampling rate : 48.0 kHz
Frame rate : 31.250 FPS (1536 SPF)
Compression mode : Lossy
Stream size : 217 MiB (9%)
Title : PELICULASZI.COM
Language : Italian
Service kind : Complete Main
Default : Yes
Forced : No

Text #1
ID : 4
Format : UTF-8
Codec ID : S_TEXT/UTF8
Codec ID/Info : UTF-8 Plain Text
Duration : 44 min 57 s
Bit rate : 0 b/s
Count of elements : 6
Stream size : 256 Bytes (0%)
Title : PELICULASZI.COM
Language : Spanish
Default : Yes
Forced : Yes

Text #2
ID : 5
Format : UTF-8
Codec ID : S_TEXT/UTF8
Codec ID/Info : UTF-8 Plain Text
Duration : 45 min 45 s
Bit rate : 50 b/s
Count of elements : 526
Stream size : 16.9 KiB (0%)
Language : Spanish
Default : No
Forced : No


Reportar Error Visitas: 139