Links Gratis

Zona de descargas de PELICULASZI.COM

Quitar Limites de descarga AQUI
Contraseña para descomprimir:
PELICULASZI.COM

El Poderoso Victoria (2021) HD WEB-DL 1080p Dual-Latino - PELICULASZI.COM

Gracias por visitarnos


LINKS (Solucionar Limite de descarga)
Contraseña para descomprimir: PELICULASZI.COM
Descargar por Google Drive (Hacer Copia a su Unidad)
Disponible solo para Usuarios VIP - Se miembro VIP
https://drive.google.com/file/d/1bdVmAPxR45r6Fw0MNHTL-YZvijjqwneq/view?usp=sharing


Descargar por Uptobox Sin límites: https://uptobox.peliculaszi.com
https://uii.io/UrIl

Descargar por 1fichier
https://uii.io/85YREO

Descargar por DooDrive
https://uii.io/5WY3D


Para llegar a los links de descarga hay que pasar por 1 Acortador
Si eres de los que les molesta o no dan para pasar por los acotadores puedes obtener los beneficios de usuario VIP, obtén más información dando clic AQUI
Format : Matroska
Format version : Version 4
File size : 7.42 GiB
Duration : 1 h 58 min
Overall bit rate : 8 946 kb/s
Encoded date : UTC 2023-03-17 17:03:42
Writing application : mkvmerge v71.1.0 ('Fortitude') 64-bit
Writing library : libebml v1.4.4 + libmatroska v1.7.1

Video
ID : 1
Format : AVC
Format/Info : Advanced Video Codec
Format profile : High@L4
Format settings : CABAC / 4 Ref Frames
Format settings, CABAC : Yes
Format settings, Reference : 4 frames
Codec ID : V_MPEG4/ISO/AVC
Duration : 1 h 58 min
Bit rate mode : Constant
Bit rate : 8 304 kb/s
Nominal bit rate : 10 000 kb/s
Width : 1 920 pixels
Height : 800 pixels
Display aspect ratio : 2.40:1
Frame rate mode : Constant
Frame rate : 24.000 FPS
Color space : YUV
Chroma subsampling : 4:2:0
Bit depth : 8 bits
Scan type : Progressive
Bits/(Pixel*Frame) : 0.225
Stream size : 6.89 GiB (93%)
Language : Spanish
Default : Yes
Forced : No
Color range : Limited
Color primaries : BT.709
Transfer characteristics : BT.709
Matrix coefficients : BT.709

Audio
ID : 2
Format : E-AC-3
Format/Info : Enhanced AC-3
Commercial name : Dolby Digital Plus
Codec ID : A_EAC3
Duration : 1 h 58 min
Bit rate mode : Constant
Bit rate : 640 kb/s
Channel(s) : 6 channels
Channel layout : L R C LFE Ls Rs
Sampling rate : 48.0 kHz
Frame rate : 31.250 FPS (1536 SPF)
Compression mode : Lossy
Stream size : 544 MiB (7%)
Language : Spanish
Service kind : Complete Main
Default : Yes
Forced : No

Text
ID : 3
Format : UTF-8
Codec ID : S_TEXT/UTF8
Codec ID/Info : UTF-8 Plain Text
Duration : 1 h 45 min
Bit rate : 27 b/s
Count of elements : 730
Stream size : 21.0 KiB (0%)
Title : Español (Latinoamérica)
Language : Spanish
Default : No
Forced : No



Reportar Links Caídos Visitas: 126