Links Gratis

Zona de descargas de PELICULASZI.COM

Quitar Limites de descarga AQUI
Contraseña para descomprimir:
PELICULASZI.COM

Succession (2018) Full HD Temporada 1 a la 3 WEB-DL 1080p Dual-Latino

Gracias por visitarnos


LINKS (Solucionar Limite de descarga)
Contraseña para descomprimir: PELICULASZI.COM
Descargar por Google Drive (Hacer Copia a su Unidad)
Disponible solo para Usuarios VIP - Se miembro VIP
https://drive.google.com/drive/folders/1PnyBZdISy9f0R4qxFqyLKJSLTPgsTSQB?usp=share_link


Descargar por Uptobox Sin límites: https://uptobox.peliculaszi.com
https://uii.io/7OjuhfDNSK
https://uptobox.com/1iaoeevminav
https://uptobox.com/udbpbvqbjk0o
https://uptobox.com/l6957eezvopz
https://uptobox.com/jbby1d91hfes
https://uptobox.com/4olbm0b9cdju
https://uptobox.com/r549e7hiok1y
https://uptobox.com/3s7omhiw7jo3
https://uptobox.com/ptftdyzm01nw
https://uptobox.com/zpuesvoo1s1x
https://uptobox.com/wbkld1ttbhnl
https://uptobox.com/otyknbb1z5hc
https://uptobox.com/niuacxcmb6z2
https://uptobox.com/0uecibof9rj2
https://uptobox.com/jr7tgsfbt6v8
https://uptobox.com/7l0n2r0spvsa
https://uptobox.com/4p27vnwbqggg
https://uptobox.com/p5umr2rqi3d6
https://uptobox.com/gkfc0ulfjylt
https://uptobox.com/alohpduris85
https://uptobox.com/setj1ot5uznr
https://uptobox.com/42tp3q7iee80
https://uptobox.com/sjl0qo37uch6
https://uptobox.com/4vr8ppod2gui
https://uptobox.com/rwnigatd5iln
https://uptobox.com/z6znb8tbe6ma
https://uptobox.com/e6znemc20xbr
https://uptobox.com/3a20v75bbplj
https://uii.io/3TpBnAiB

Descargar por 1fichier
https://uii.io/rUTDkABq
https://1fichier.com/?s5xc86d15k61rmulk1m5
https://1fichier.com/?268gce7ynwyg84zfc7z4
https://1fichier.com/?lip135t98nqy0exwr665
https://1fichier.com/?rhxcuo8s7l8q7chdvl63
https://1fichier.com/?6yj4sirx0j6foh6ix7d4
https://1fichier.com/?uypfufse8qo1z8yas0dm
https://1fichier.com/?o5gjwnczupeqggxtv4qi
https://1fichier.com/?vuhgjubs2e3kx8g19jjf
https://1fichier.com/?li59keq2y4za3htsqaj5
https://1fichier.com/?sfkx3gfq6tls3if8ms1q
https://1fichier.com/?i3tqa50018gfy5e7dh64
https://1fichier.com/?2waj8y5qhrtv81vgp9tw
https://1fichier.com/?u65uwgrvcxp75u6l4k2a
https://1fichier.com/?ntpb9fn44efqkhgzzn6v
https://1fichier.com/?mbjh9kcj960b9t2ls0fs
https://1fichier.com/?ku1r85gekyp3m9wh6u7b
https://1fichier.com/?5hzh4tdu3k40o3wihgmx
https://1fichier.com/?2f3c21y5poqtnyvxj1ju
https://1fichier.com/?7xxu3fbvop6n97gdmilf
https://1fichier.com/?2s60fshpmijijbzqhxvb
https://1fichier.com/?iq9yhm7wgr3379wqi5je
https://1fichier.com/?uysv5umtel57lqzze257
https://1fichier.com/?anjbaxdjtfhxifokw1no
https://1fichier.com/?jqsdrqoju06skv621qkw
https://1fichier.com/?yuqpyoy37nnxysdzuv1a
https://1fichier.com/?9u3i5gu3p5y5bdgvbxe1
https://1fichier.com/?kvsoi79u84rtchnfs46r
https://uii.io/eB34l

Descargar por DooDrive
https://uii.io/8NLjCdo3Z4
https://doodrive.com/f/8973ke
https://doodrive.com/f/7xgy8z
https://doodrive.com/f/8973d4
https://doodrive.com/f/gk1y0o
https://doodrive.com/f/6xopxx
https://doodrive.com/f/29x1dp
https://doodrive.com/f/njn1ok
https://doodrive.com/f/1x04kv
https://doodrive.com/f/7xgyjd
https://doodrive.com/f/v7mwz2
https://doodrive.com/f/d6d2pe
https://doodrive.com/f/njn8k1
https://doodrive.com/f/997ozn
https://doodrive.com/f/yp49vv
https://doodrive.com/f/kjxgo4
https://doodrive.com/f/emkzj8
https://doodrive.com/f/wzd04y
https://doodrive.com/f/ojozm0
https://doodrive.com/f/ojoz4q
https://doodrive.com/f/gk14j1
https://doodrive.com/f/7xg4pv
https://doodrive.com/f/6xokz6
https://doodrive.com/f/kjx0pp
https://doodrive.com/f/emkdx6
https://doodrive.com/f/wzdovp
https://doodrive.com/f/pzwgvj
https://uii.io/xo7KCaW

Descargar por MegaUp
https://exe.io/kV5DPhyd

Para llegar a los links de descarga hay que pasar por 1 Acortador
Si eres de los que les molesta o no dan para pasar por los acotadores puedes obtener los beneficios de usuario VIP, obtén más información dando clic AQUI
Format : Matroska
Format version : Version 4
File size : 3.85 GiB
Duration : 1 h 1 min
Overall bit rate mode : Variable
Overall bit rate : 9 014 kb/s
Movie name : Más contenido en: PELICULASZI.COM
Encoded date : UTC 2023-03-21 12:50:48
Writing application : mkvmerge v59.0.0 ('Shining Star') 64-bit
Writing library : libebml v1.4.2 + libmatroska v1.6.4

Video
ID : 1
Format : AVC
Format/Info : Advanced Video Codec
Format profile : High@L4
Format settings : CABAC / 4 Ref Frames
Format settings, CABAC : Yes
Format settings, Reference : 4 frames
Codec ID : V_MPEG4/ISO/AVC
Duration : 1 h 1 min
Bit rate mode : Variable
Bit rate : 8 250 kb/s
Maximum bit rate : 12.4 Mb/s
Width : 1 920 pixels
Height : 1 080 pixels
Display aspect ratio : 16:9
Frame rate mode : Constant
Frame rate : 23.976 (24000/1001) FPS
Color space : YUV
Chroma subsampling : 4:2:0
Bit depth : 8 bits
Scan type : Progressive
Bits/(Pixel*Frame) : 0.166
Stream size : 3.52 GiB (91%)
Title : Más contenido en: PELICULASZI.COM
Writing library : x264 core 157 r2965 861cec4
Encoding settings : cabac=1 / ref=4 / deblock=1:0:0 / analyse=0x3:0x113 / me=hex / subme=7 / psy=1 / psy_rd=1.00:0.00 / mixed_ref=1 / me_range=16 / chroma_me=1 / trellis=1 / 8x8dct=1 / cqm=0 / deadzone=21,11 / fast_pskip=1 / chroma_qp_offset=-2 / threads=34 / lookahead_threads=5 / sliced_threads=0 / nr=0 / decimate=1 / interlaced=0 / bluray_compat=0 / constrained_intra=0 / bframes=3 / b_pyramid=2 / b_adapt=1 / b_bias=0 / direct=1 / weightb=1 / open_gop=0 / weightp=2 / keyint=96 / keyint_min=96 / scenecut=40 / intra_refresh=0 / rc_lookahead=40 / rc=2pass / mbtree=1 / bitrate=8250 / ratetol=1.0 / qcomp=0.60 / qpmin=0 / qpmax=69 / qpstep=4 / cplxblur=20.0 / qblur=0.5 / vbv_maxrate=12375 / vbv_bufsize=6187 / nal_hrd=vbr / filler=0 / ip_ratio=1.40 / aq=1:1.00
Language : Spanish
Default : Yes
Forced : No
Color range : Limited
Color primaries : BT.709
Transfer characteristics : BT.709
Matrix coefficients : BT.709

Audio #1
ID : 2
Format : AC-3
Format/Info : Audio Coding 3
Commercial name : Dolby Digital
Codec ID : A_AC3
Duration : 1 h 1 min
Bit rate mode : Constant
Bit rate : 384 kb/s
Channel(s) : 2 channels
Channel layout : L R
Sampling rate : 48.0 kHz
Frame rate : 31.250 FPS (1536 SPF)
Compression mode : Lossy
Stream size : 168 MiB (4%)
Title : PELICULASZI.COM
Language : Spanish
Service kind : Complete Main
Default : Yes
Forced : No

Audio #2
ID : 3
Format : AC-3
Format/Info : Audio Coding 3
Commercial name : Dolby Digital
Codec ID : A_AC3
Duration : 1 h 1 min
Bit rate mode : Constant
Bit rate : 384 kb/s
Channel(s) : 6 channels
Channel layout : L R C LFE Ls Rs
Sampling rate : 48.0 kHz
Frame rate : 31.250 FPS (1536 SPF)
Compression mode : Lossy
Stream size : 168 MiB (4%)
Title : PELICULASZI.COM
Language : English
Service kind : Complete Main
Default : No
Forced : No

Text
ID : 4
Format : UTF-8
Codec ID : S_TEXT/UTF8
Codec ID/Info : UTF-8 Plain Text
Duration : 59 min 12 s
Bit rate : 67 b/s
Count of elements : 931
Stream size : 29.3 KiB (0%)
Title : PELICULASZI.COM
Language : Spanish
Default : No
Forced : No

Menu
00:02:52.254 : Intro



Reportar Links Caídos Visitas: 229