Links Gratis

Zona de descargas de PELICULASZI.COM

Quitar Limites de descarga AQUI
Contraseña para descomprimir:
PELICULASZI.COM

Succession (2023) Full HD Temporada 4 WEB-DL 1080p Dual-Latino

Gracias por visitarnos


LINKS (Solucionar Limite de descarga)
Contraseña para descomprimir: PELICULASZI.COM
Descargar por Google Drive (Hacer Copia a su Unidad)
Disponible solo para Usuarios VIP - Se miembro VIP
https://drive.google.com/drive/folders/1d5cj0penErOImNHmbbkdfku2KC0yxSg2?usp=share_link


Descargar por Uptobox Sin límites: https://uptobox.peliculaszi.com
https://uii.io/x8Pjf4EE6N
https://uptobox.com/r6i6xqmxp1wk
https://uptobox.com/d3wmtvvv2726
https://exe.io/mcmZQ
https://uptobox.com/lem40v0zfuf9
https://uptobox.com/ho2v6ngq8kdv
https://exe.io/JVaLViUy
https://uptobox.com/tj9lf6g4ik7s
https://exe.io/PMSyUr
https://uptobox.com/y4zk0bxq2wtz

Descargar por 1fichier
https://uii.io/IQ27B42J
https://1fichier.com/?jtytnvplpu8dfiomqhje
https://1fichier.com/?malcxg4iy0kh84b2asyp
https://exe.io/QdpHge0Z
https://1fichier.com/?0gzundld164dbr1fsdif
https://1fichier.com/?axr66nuqso3ywelhg0y1
https://exe.io/JVaLViUy
https://exe.io/3qJ3AEk
https://1fichier.com/?g27usfiuz0xb47mv9fas
https://exe.io/C0da
https://1fichier.com/?bneq5epa3yowbv0gmodj

Descargar por DooDrive
https://uii.io/Q1jcylt
https://doodrive.com/f/44dk2m
https://doodrive.com/f/d7gkwe
https://exe.io/Nqf4R0
https://doodrive.com/f/ymxqj6
https://doodrive.com/f/m8yy18
https://exe.io/7kMlm
https://doodrive.com/f/j79k99
https://exe.io/PXa0FSd

Descargar por MegaUp
https://megaup.net/2z0F4/Succession_T04-E01.mkv
https://megaup.net/1df1w/Succession_T04-E02.mkv
https://megaup.net/1dog7/Succession_T04-E03.mkv
https://exe.io/KebyjS
https://megaup.net/1TDqt/Succession_T04-E05.mkv
https://megaup.net/2zK2r/Succession_T04-E06.mkv
https://exe.io/9Ssz4w
https://gofile.io/d/wGGjCX
https://uii.io/aD6O6uE
https://gofile.io/d/GqRCOB

Para llegar a los links de descarga hay que pasar por 1 Acortador
Si eres de los que les molesta o no dan para pasar por los acotadores puedes obtener los beneficios de usuario VIP, obtén más información dando clic AQUI
Format : Matroska
Format version : Version 4
File size : 3.81 GiB
Duration : 1 h 0 min
Overall bit rate mode : Variable
Overall bit rate : 9 010 kb/s
Movie name : Más contenido en: PELICULASZI.COM
Encoded date : UTC 2023-03-27 09:14:42
Writing application : mkvmerge v59.0.0 ('Shining Star') 64-bit
Writing library : libebml v1.4.2 + libmatroska v1.6.4

Video
ID : 1
Format : AVC
Format/Info : Advanced Video Codec
Format profile : High@L4
Format settings : CABAC / 4 Ref Frames
Format settings, CABAC : Yes
Format settings, Reference : 4 frames
Format settings, GOP : M=1, N=5
Codec ID : V_MPEG4/ISO/AVC
Duration : 1 h 0 min
Bit rate mode : Variable
Bit rate : 8 250 kb/s
Maximum bit rate : 12.4 Mb/s
Width : 1 920 pixels
Height : 1 080 pixels
Display aspect ratio : 16:9
Frame rate mode : Constant
Frame rate : 29.970 (30000/1001) FPS
Color space : YUV
Chroma subsampling : 4:2:0
Bit depth : 8 bits
Scan type : Progressive
Bits/(Pixel*Frame) : 0.133
Stream size : 3.49 GiB (91%)
Title : Más contenido en: PELICULASZI.COM
Writing library : x264 core 157 r2965 861cec4
Encoding settings : cabac=1 / ref=4 / deblock=1:0:0 / analyse=0x3:0x113 / me=hex / subme=7 / psy=1 / psy_rd=1.00:0.00 / mixed_ref=1 / me_range=16 / chroma_me=1 / trellis=1 / 8x8dct=1 / cqm=0 / deadzone=21,11 / fast_pskip=1 / chroma_qp_offset=-2 / threads=34 / lookahead_threads=5 / sliced_threads=0 / nr=0 / decimate=1 / interlaced=0 / bluray_compat=0 / constrained_intra=0 / bframes=3 / b_pyramid=2 / b_adapt=1 / b_bias=0 / direct=1 / weightb=1 / open_gop=0 / weightp=2 / keyint=120 / keyint_min=120 / scenecut=40 / intra_refresh=0 / rc_lookahead=40 / rc=2pass / mbtree=1 / bitrate=8250 / ratetol=1.0 / qcomp=0.60 / qpmin=0 / qpmax=69 / qpstep=4 / cplxblur=20.0 / qblur=0.5 / vbv_maxrate=12375 / vbv_bufsize=6187 / nal_hrd=vbr / filler=0 / ip_ratio=1.40 / aq=1:1.00
Language : Spanish
Default : Yes
Forced : No
Color range : Limited
Color primaries : BT.709
Transfer characteristics : BT.709
Matrix coefficients : BT.709

Audio #1
ID : 2
Format : AC-3
Format/Info : Audio Coding 3
Commercial name : Dolby Digital
Codec ID : A_AC3
Duration : 1 h 0 min
Bit rate mode : Constant
Bit rate : 384 kb/s
Channel(s) : 6 channels
Channel layout : L R C LFE Ls Rs
Sampling rate : 48.0 kHz
Frame rate : 31.250 FPS (1536 SPF)
Compression mode : Lossy
Stream size : 166 MiB (4%)
Title : PELICULASZI.COM
Language : Spanish
Service kind : Complete Main
Default : Yes
Forced : No

Audio #2
ID : 3
Format : AC-3
Format/Info : Audio Coding 3
Commercial name : Dolby Digital
Codec ID : A_AC3
Duration : 1 h 0 min
Bit rate mode : Constant
Bit rate : 384 kb/s
Channel(s) : 6 channels
Channel layout : L R C LFE Ls Rs
Sampling rate : 48.0 kHz
Frame rate : 31.250 FPS (1536 SPF)
Compression mode : Lossy
Stream size : 166 MiB (4%)
Title : PELICULASZI.COM
Language : English
Service kind : Complete Main
Default : No
Forced : No

Text #1
ID : 4
Format : UTF-8
Codec ID : S_TEXT/UTF8
Codec ID/Info : UTF-8 Plain Text
Duration : 56 min 38 s
Bit rate : 0 b/s
Count of elements : 3
Stream size : 82.0 Bytes (0%)
Title : Forzados
Language : Spanish
Default : No
Forced : Yes

Text #2
ID : 5
Format : UTF-8
Codec ID : S_TEXT/UTF8
Codec ID/Info : UTF-8 Plain Text
Duration : 57 min 23 s
Bit rate : 78 b/s
Count of elements : 1053
Stream size : 32.9 KiB (0%)
Title : Español (Latinoamérica)
Language : Spanish
Default : No
Forced : No

Text #3
ID : 6
Format : UTF-8
Codec ID : S_TEXT/UTF8
Codec ID/Info : UTF-8 Plain Text
Duration : 57 min 32 s
Bit rate : 91 b/s
Count of elements : 962
Stream size : 38.6 KiB (0%)
Title : English
Language : English
Default : No
Forced : No

Menu
00:00:06.472 : Intro




Reportar Links Caídos Visitas: 265