Links Gratis

Zona de descargas de PELICULASZI.COM

Quitar Limites de descarga AQUI
Contraseña para descomprimir:
PELICULASZI.COM

El Asesino Mediático (2023) Full HD Temporada 1 WEB-DL 1080p Dual-Latino

Gracias por visitarnos


LINKS (Solucionar Limite de descarga)
Contraseña para descomprimir: PELICULASZI.COM
Descargar por Google Drive (Hacer Copia a su Unidad)
Disponible solo para Usuarios VIP - Se miembro VIP
https://drive.google.com/drive/folders/1RZqedyefhKFGHMSfM4aCszHkhj0cbO3E?usp=share_link


Descargar por Uptobox Sin límites: https://uptobox.peliculaszi.com
https://uii.io/urDr24Rt
https://uptobox.com/3ksv0n2274f2
https://uptobox.com/iw4bui9yfi1q
https://uptobox.com/tva2l5f67v28
https://uptobox.com/2zvkqwzw0f31
https://uptobox.com/k2z679jwosjf
https://uptobox.com/xvrrzt8q53wo
https://uptobox.com/qmvn3ka36dzm
https://uptobox.com/dh7zfy4ufwpy
https://uptobox.com/xhl41h8u7uon

Descargar por 1fichier
https://uii.io/p8w3
https://1fichier.com/?ed4r6h81bm80zjt1xah6
https://1fichier.com/?htnwcgfdt0kvnvb9o52q
https://1fichier.com/?36v2skqcgg6299ofm5n8
https://1fichier.com/?sk0zra1qo5wi62u20vu6
https://1fichier.com/?4dtb23owvctuuehem7ce
https://1fichier.com/?njshv979lxf2ni1lzq3a
https://1fichier.com/?59niznnecgjv5w8sa5w9
https://1fichier.com/?ekfrgk1kdvirle71sm3z
https://1fichier.com/?c9rtmsjuwimxfeagkq8w

Descargar por DooDrive
https://uii.io/32dFcz
https://doodrive.com/f/j76dnx
https://doodrive.com/f/o0mqg7
https://doodrive.com/f/zd09my
https://doodrive.com/f/ymd963
https://doodrive.com/f/m8d1z9
https://doodrive.com/f/x6d97n
https://doodrive.com/f/g763dd
https://doodrive.com/f/3kmz17
https://doodrive.com/f/kqmg8x

Descargar por MegaUp
https://uii.io/TGJVjOr9

Para llegar a los links de descarga hay que pasar por 1 Acortador
Si eres de los que les molesta o no dan para pasar por los acotadores puedes obtener los beneficios de usuario VIP, obtén más información dando clic AQUI
Format : Matroska
Format version : Version 4
File size : 2.30 GiB
Duration : 54 min 40 s
Overall bit rate mode : Variable
Overall bit rate : 6 023 kb/s
Movie name : Más contenido en: PELICULASZI.COM
Encoded date : UTC 2023-03-31 10:13:19
Writing application : mkvmerge v61.0.0 ('So') 64-bit
Writing library : libebml v1.4.2 + libmatroska v1.6.4

Video
ID : 1
Format : AVC
Format/Info : Advanced Video Codec
Format profile : Main@L4
Format settings : CABAC / 3 Ref Frames
Format settings, CABAC : Yes
Format settings, Reference : 3 frames
Codec ID : V_MPEG4/ISO/AVC
Duration : 54 min 40 s
Bit rate mode : Variable
Bit rate : 4 741 kb/s
Nominal bit rate : 5 000 kb/s
Maximum bit rate : 7 500 kb/s
Width : 1 920 pixels
Height : 1 080 pixels
Display aspect ratio : 16:9
Frame rate mode : Constant
Frame rate : 24.000 FPS
Color space : YUV
Chroma subsampling : 4:2:0
Bit depth : 8 bits
Scan type : Progressive
Bits/(Pixel*Frame) : 0.095
Stream size : 1.81 GiB (79%)
Title : Más contenido en: PELICULASZI.COM
Writing library : x264 core 148 r2727 7d026e8
Encoding settings : cabac=1 / ref=3 / deblock=1:0:0 / analyse=0x1:0x111 / me=umh / subme=10 / psy=1 / psy_rd=1.00:0.00 / mixed_ref=1 / me_range=24 / chroma_me=1 / trellis=2 / 8x8dct=0 / cqm=0 / deadzone=21,11 / fast_pskip=1 / chroma_qp_offset=-2 / threads=8 / lookahead_threads=1 / sliced_threads=0 / nr=0 / decimate=1 / interlaced=0 / bluray_compat=0 / stitchable=1 / constrained_intra=0 / bframes=2 / b_pyramid=0 / b_adapt=2 / b_bias=0 / direct=3 / weightb=1 / open_gop=0 / weightp=2 / keyint=48 / keyint_min=25 / scenecut=0 / intra_refresh=0 / rc_lookahead=48 / rc=2pass / mbtree=1 / bitrate=5000 / ratetol=1.0 / qcomp=0.50 / qpmin=6 / qpmax=51 / qpstep=4 / cplxblur=20.0 / qblur=0.5 / vbv_maxrate=7500 / vbv_bufsize=10000 / nal_hrd=vbr / filler=0 / ip_ratio=1.40 / aq=1:1.00
Language : Chinese
Default : Yes
Forced : No

Audio #1
ID : 2
Format : E-AC-3
Format/Info : Enhanced AC-3
Commercial name : Dolby Digital Plus
Codec ID : A_EAC3
Duration : 54 min 40 s
Bit rate mode : Constant
Bit rate : 640 kb/s
Channel(s) : 6 channels
Channel layout : L R C LFE Ls Rs
Sampling rate : 48.0 kHz
Frame rate : 31.250 FPS (1536 SPF)
Compression mode : Lossy
Stream size : 250 MiB (11%)
Title : PELICULASZI.COM
Language : Spanish
Service kind : Complete Main
Default : Yes
Forced : Yes

Audio #2
ID : 3
Format : E-AC-3
Format/Info : Enhanced AC-3
Commercial name : Dolby Digital Plus
Codec ID : A_EAC3
Duration : 54 min 40 s
Bit rate mode : Constant
Bit rate : 640 kb/s
Channel(s) : 6 channels
Channel layout : L R C LFE Ls Rs
Sampling rate : 48.0 kHz
Frame rate : 31.250 FPS (1536 SPF)
Compression mode : Lossy
Stream size : 250 MiB (11%)
Title : Taiwan
Service kind : Complete Main
Default : Yes
Forced : No

Text #1
ID : 4
Format : UTF-8
Codec ID : S_TEXT/UTF8
Codec ID/Info : UTF-8 Plain Text
Duration : 53 min 39 s
Bit rate : 64 b/s
Count of elements : 823
Stream size : 25.4 KiB (0%)
Title : Latin American
Language : Spanish
Default : No
Forced : No

Text #2
ID : 5
Format : UTF-8
Codec ID : S_TEXT/UTF8
Codec ID/Info : UTF-8 Plain Text
Duration : 53 min 39 s
Bit rate : 7 b/s
Count of elements : 86
Stream size : 3.07 KiB (0%)
Title : Spanish [ForcedNarrative]
Language : Spanish
Default : Yes
Forced : Yes



Reportar Links Caídos Visitas: 115